Ломка / Resolution (Джастин Бенсон / Justin Benson, Аарон Мурхед / Aaron Moorhead) [2012, США, ужасы, триллер, детектив, WEB-DLRip][лицензия]

Ответить на тему
 

Suxrob89 ®

Стаж: 7 лет 2 месяца

Сообщений: 933

Симпатии: 564

-Ломка / Resolution-«Думаете, это наркотики?»- Страна: США
Жанр: ужасы, триллер, детектив
Год выпуска: 2012
Продолжительность: 01:32:55-Перевод: Профессиональный (полное дублирование)[лицензия]
Субтитры: нет
Режиссер: Джастин Бенсон / Justin Benson, Аарон Мурхед / Aaron Moorhead
В ролях: Питер Силелла, Винни Каррен, Занн МаКларнон, Билл Оберст мл., Курт Дэвид Андерсон, Эмили Монтаг, Скайлер Мичам, Кармел Бенсон, Джастин Бенсон, Катрин Барнс, Майкл Фелкер, Джош Хиггинс-Описание: То, что начинается как попытка спасти друга от наркозависимости, принимает неожиданный и жуткий оборот. Послание, принятое за крик наркомана о помощи, его полуразрушенный дом, случайно найденные пугающие пленки и дневники, незнакомцы с неясными намерениями... Наркотики - далеко не самое страшное, с чем придется столкнуться героям.- -Сценарий: Джастин Бенсон / Justin Benson
Продюсер: Джастин Бенсон / Justin Benson, Дэвид Кларк Лосон мл. / David Clarke Lawson Jr., Аарон Мурхед / Aaron Moorhead, Майкл Фелкер / Michael Felker, Алисия Джонсон / Alicia Johnson
Оператор: Аарон Мурхед / Aaron Moorhead
Бюджет: $1 000 000
Мировая премьера: 22 апреля 2012-Качество: WEB-DLRip
Контейнер: AVI
Видео кодек: XviD
Аудио кодек: MP3
Видео: 2060 kb/s, 720x304
Аудио: MP3, 128 kb/s (2 ch)-

Media Info

F:\Resolution.2012.WEBRip_1400.avi
General
Complete name : F:\Resolution.2012.WEBRip_1400.avi
Format : AVI
Format/Info : Audio Video Interleave
File size : 1.37 GiB
Duration : 1h 29mn
Overall bit rate : 2 211 Kbps
Movie name : Lomka.2012.P.HDRip.1400MB[release of bittotl.ru]
Writing application : VirtualDubMod 1.5.10.3 | www.virtualdub-fr.org || (build 2550/release) VirtualDubMod build 2550/release
Video #0
ID : 0
Format : MPEG-4 Visual
Format profile : Advanced [email protected]
Format settings, BVOP : 2
Format settings, QPel : No
Format settings, GMC : No warppoints
Format settings, Matrix : Default (MPEG)
Codec ID : XVID
Codec ID/Hint : XviD
Duration : 1h 29mn
Bit rate : 2 073 Kbps
Width : 720 pixels
Height : 304 pixels
Display aspect ratio : 2.35:1
Frame rate : 25.000 fps
Color space : YUV
Chroma subsampling : 4:2:0
Bit depth : 8 bits
Scan type : Progressive
Compression mode : Lossy
Bits/(Pixel*Frame) : 0.379
Stream size : 1.29 GiB (94%)
Writing library : XviD 1.2.1 (UTC 2008-12-04)
Audio #1
ID : 1
Format : MPEG Audio
Format version : Version 1
Format profile : Layer 3
Mode : Joint stereo
Mode extension : MS Stereo
Codec ID : 55
Codec ID/Hint : MP3
Duration : 1h 29mn
Bit rate mode : Constant
Bit rate : 128 Kbps
Channel(s) : 2 channels
Sampling rate : 48.0 KHz
Compression mode : Lossy
Stream size : 81.5 MiB (6%)
Alignment : Aligned on interleaves
Interleave, duration : 40 ms (1.00 video frame)
Interleave, preload duration : 504 ms
Writing library : LAME3.99r
Encoding settings : -m j -V 4 -q 5 -lowpass 17 -b 128
Language : Undefined

Скриншот с названием фильма

http://img.tas-ix.net/images/2013/8a6f5d9a9afa777338456c76caec5ffd.png

Скриншоты

Создавать темы 29-Июн-2013 10:03

[Профиль]  [ЛС] 

feniksqip

Стаж: 5 лет 5 месяцев

Сообщений: 26

Симпатии: 1

Как фильм ??? Стоит качать ?

Создавать темы 29-Июн-2013 11:32

[Профиль]  [ЛС] 

Rasul

Стаж: 5 лет 9 месяцев

Сообщений: 100

Симпатии: 6

оставьте свое мнение о фильме!!!

Создавать темы 30-Июн-2013 17:25

[Профиль]  [ЛС] 
Показать сообщения:    
Ответить на тему

Текущее время: 22-Окт 06:06

Часовой пояс: UTC + 5



Вы не можете начинать темы
Вы не можете отвечать на сообщения
Вы не можете редактировать свои сообщения
Вы не можете удалять свои сообщения
Вы не можете голосовать в опросах
Вы не можете прикреплять файлы к сообщениям
Вы не можете скачивать файлы