Рейд / The Raid (Гарет Эванс) [UNRATED][2011 г., боевик, триллер, криминал, BDRip-AVC]

Ответить на тему
 

ZeroX ®

Стаж: 5 лет 6 месяцев

Сообщений: 146

Симпатии: 3

Рейд / The Raid
UNRATED Edition
«Спецназ против мафии. Брат против брата. 30 этажей ада»
-
Год выпуска: 2011
Страна: Индонезия, США
Жанр: боевик, триллер, криминал
Режиссер: Гарет Эванс
Актерский Состав: Ико Ювайс, Джо Таслим, Дони Аламсях, Яян Рухьян, Пьер Грюно, Рэй Сахетапи, Тегар Сатрия, Ианг Дармаван, Эка «Пиранья» Рахмадия, Верди Солайман
Продолжительность: 01:41:04
Перевод: Профессиональный (полное дублирование) + Оригинальная Звуковая Дорожка
Субтитры: Присутствуют (Вшитые отключаемые)
Язык субтитров: Русский-Описание: Отряд спецназовцев получает задание проникнуть в многоэтажный дом, расположенный в самом сердце трущоб Джакарты, и арестовать обосновавшегося там наркобарона, которого охраняет целая армия вооруженных до зубов головорезов. Операцию нужно провести без лишнего шума, но нелепая случайность нарушает планы служителей закона. Теперь бойцам негде спрятаться и некуда бежать. Перед ними 30 этажей ада, где смертью грозит каждый неверный шаг. Война по правилам кончилась. Выживает сильнейший!-Награды:
  • 2011 — Приз зрительских симпатий в категории «Полуночное безумие» на кинофестивале в Торонто.
  • 2012 — приз «Серебряный крик» на Амстердамском фестивале фантастических фильмов.
  • 2012 — призы критиков и зрительских симпатий на Дублинском кинофестивале.
Рейтинги:
  • КиноПоиск.Ru: 7.346 (16 195)
  • IMDb.com: 7.60 (69 835)
  • MPAA: лицам до 17 лет обязательно присутствие взрослого
-Качество: BDRip-AVC
Формат: MKV
Видео кодек: x264
Аудио кодек: AC3
Видео: AVC, ~2 055 Kbps, 1024x576, 23.976 fps
Аудио #1: AC-3, 448 Kbps, 6 ch, 48.0 KHz - Профессиональный (Полное дублирование)
Аудио #2: AC-3, 448 Kbps, 6 ch, 48.0 KHz - Оригинал (Индонезийский)
Примечание: Сохранены оригинальные чаптеры (Как на BluRay)

M.I.

Format : Matroska
Format version : Version 2
File size : 2.08 GiB
Duration : 1h 41mn
Overall bit rate : 2 953 Kbps
Encoded date : UTC 2012-08-12 11:13:07
Writing application : mkvmerge v5.7.0 ('The Whirlwind') built on Jul 8 2012 20:08:51
Writing library : libebml v1.2.3 + libmatroska v1.3.0
Video
ID : 1
Format : AVC
Format/Info : Advanced Video Codec
Format profile : [email protected]
Format settings, CABAC : Yes
Format settings, ReFrames : 10 frames
Codec ID : V_MPEG4/ISO/AVC
Duration : 1h 41mn
Bit rate : 2 055 Kbps
Width : 1 024 pixels
Height : 576 pixels
Display aspect ratio : 16:9
Frame rate mode : Constant
Frame rate : 23.976 fps
Color space : YUV
Chroma subsampling : 4:2:0
Bit depth : 8 bits
Scan type : Progressive
Bits/(Pixel*Frame) : 0.145
Stream size : 1.41 GiB (68%)
Writing library : x264 core 125 r2200 999b753
Encoding settings : cabac=1 / ref=10 / deblock=1:-2:-1 / analyse=0x3:0x133 / me=umh / subme=10 / psy=1 / psy_rd=1.05:0.05 / mixed_ref=1 / me_range=32 / chroma_me=1 / trellis=2 / 8x8dct=1 / cqm=0 / deadzone=21,11 / fast_pskip=0 / chroma_qp_offset=-3 / threads=12 / lookahead_threads=2 / sliced_threads=0 / nr=0 / decimate=1 / interlaced=0 / bluray_compat=0 / constrained_intra=0 / bframes=8 / b_pyramid=2 / b_adapt=2 / b_bias=0 / direct=3 / weightb=1 / open_gop=0 / weightp=2 / keyint=240 / keyint_min=23 / scenecut=40 / intra_refresh=0 / rc=2pass / mbtree=0 / bitrate=2055 / ratetol=1.0 / qcomp=0.60 / qpmin=0 / qpmax=69 / qpstep=4 / cplxblur=20.0 / qblur=0.5 / ip_ratio=1.40 / pb_ratio=1.30 / aq=2:0.70
Language : English
Default : Yes
Forced : No
Audio #1
ID : 2
Format : AC-3
Format/Info : Audio Coding 3
Mode extension : CM (complete main)
Format settings, Endianness : Big
Codec ID : A_AC3
Duration : 1h 41mn
Bit rate mode : Constant
Bit rate : 448 Kbps
Channel(s) : 6 channels
Channel positions : Front: L C R, Side: L R, LFE
Sampling rate : 48.0 KHz
Bit depth : 16 bits
Compression mode : Lossy
Stream size : 324 MiB (15%)
Language : Russian
Default : Yes
Forced : No
Audio #2
ID : 3
Format : AC-3
Format/Info : Audio Coding 3
Mode extension : CM (complete main)
Format settings, Endianness : Big
Codec ID : A_AC3
Duration : 1h 41mn
Bit rate mode : Constant
Bit rate : 448 Kbps
Channel(s) : 6 channels
Channel positions : Front: L C R, Side: L R, LFE
Sampling rate : 48.0 KHz
Bit depth : 16 bits
Compression mode : Lossy
Stream size : 324 MiB (15%)
Language : Indonesian
Default : No
Forced : No
Text
ID : 4
Format : UTF-8
Codec ID : S_TEXT/UTF8
Codec ID/Info : UTF-8 Plain Text
Language : Russian
Default : No
Forced : No
Menu
00:00:00.000 : en:
00:06:15.124 : en:
00:12:36.380 : en:
00:17:37.765 : en:
00:22:45.696 : en:
00:27:06.916 : en:
00:32:45.880 : en:
00:37:27.495 : en:
00:42:37.888 : en:
00:48:49.927 : en:
00:55:16.104 : en:
00:59:58.720 : en:
01:05:15.828 : en:
01:10:53.332 : en:
01:16:29.167 : en:
01:30:09.779 : en:

Скриншоты







Скринлист

Создавать темы 29-Июн-2013 20:33

[Профиль]  [ЛС] 

Дмитриев

Стаж: 7 лет 4 месяца

Сообщений: 139

Симпатии: 12

ZeroX
Спасибо!!! 100 лет ждал bp az

Создавать темы 29-Июн-2013 20:37

[Профиль]  [ЛС] 

ZeroX ®

Стаж: 5 лет 6 месяцев

Сообщений: 146

Симпатии: 3

Обращение к модерам - Поставьте серебро, все таки фильм этого достоин tx

Создавать темы 29-Июн-2013 20:49

[Профиль]  [ЛС] 

Grock

Стаж: 6 лет 8 месяцев

Сообщений: 637

Симпатии: 113

Скачаю Матрешку для коллекции zd, Спасибо.

Создавать темы 29-Июн-2013 20:53

[Профиль]  [ЛС] 

ZeroX ®

Стаж: 5 лет 6 месяцев

Сообщений: 146

Симпатии: 3

У кого не видит меня, добавьте в пиры ip 10.3.151.150:55305 10.3.12.71:55305


Последний раз редактировалось: ZeroX (2013-06-30 12:08), всего редактировалось 1 раз

Создавать темы 29-Июн-2013 22:50

[Профиль]  [ЛС] 

abusaid

Стаж: 4 года 4 месяца

Сообщений: 32

Симпатии: 3

Отличный фильм. Боевые сцены на высшем уровне.

Создавать темы 30-Июн-2013 08:36

[Профиль]  [ЛС] 

ZeroX ®

Стаж: 5 лет 6 месяцев

Сообщений: 146

Симпатии: 3

Значение приставки UNRATED, для тех кто не в курсе-Unrated Cut - означает, что данная версия этого фильма не получила рейтинга от Motion Picture Association of America (MPAA).
MPAA выдаёт фильмам рейтинги PG (часто можно видеть в тирах к фильму). PG- рекомендуемый возраст смотрящего, что-то вроде советского "детям до 16", только более расширенный вариант.
Некоторые полные версии новых фильмов не "вписываются" в цензурные рамки PG, их редактируют (цензурируют) перед выходом в широкий прокат, чтобы они получили этот рейтинг.
Unrated Cut можно понимать как "не проверенная цензурой версия", обычно более полная.-

Создавать темы 30-Июн-2013 11:04

[Профиль]  [ЛС] 

Дмитриев

Стаж: 7 лет 4 месяца

Сообщений: 139

Симпатии: 12

ZeroX, Samsung_TAB, alek7
Так же все скачавшие посетите эту ссылку у вас нет отдачи
http://tas-ix.net/viewtopic.php?t=75691

Создавать темы 09-Авг-2013 23:26

[Профиль]  [ЛС] 

ZeroX ®

Стаж: 5 лет 6 месяцев

Сообщений: 146

Симпатии: 3

Дмитриев, у меня тередо включен уже давно, как только Узонлайн перевел Области на НАТ.

Создавать темы 14-Авг-2013 09:04

[Профиль]  [ЛС] 
Показать сообщения:    
Ответить на тему

Текущее время: 20-Окт 04:28

Часовой пояс: UTC + 5



Вы не можете начинать темы
Вы не можете отвечать на сообщения
Вы не можете редактировать свои сообщения
Вы не можете удалять свои сообщения
Вы не можете голосовать в опросах
Вы не можете прикреплять файлы к сообщениям
Вы не можете скачивать файлы