Падение Олимпа / Olympus Has Fallen (Антуан Фукуа / Antoine Fuqua) [2013, США, боевик, триллер, HDRip][Чистый Звук] + Original Eng

Страницы :  1, 2, 3, 4  След.

Ответить на тему
 

Suxrob89 ®

Стаж: 7 лет

Сообщений: 933

Симпатии: 564

-Падение Олимпа / Olympus Has Fallen-«Удар был нанесён в самое сердце. Но он заставит его биться вновь.»- -Страна: США / Millennium Films, Nu Image Films, West Coast Film Partners
Жанр: боевик, триллер
Год выпуска: 2013
Продолжительность: 01:59:09-Перевод: Профессиональный (дублированный) [Чистый Звук]
Cубтитры: нет
Оригинальная аудиодорожка: английский-Режиссер: Антуан Фукуа / Antoine Fuqua-В ролях: Джерард Батлер, Аарон Экхарт, Морган Фриман, Эшли Джадд, Мелисса Лео, Финли Якобсен, Дилан МакДермотт, Рик Юн, Анджела Бассетт, Рада Митчелл-Описание: Когда на Белый Дом нападают террористы, а президента берут в заложники, дискредитированный бывший охранник главы государства Майк Бэннинг оказывается внутри захваченного здания. И теперь он единственный, кто сможет спасти президента…- -Качество видео: HDRip
Формат видео: AVI
Видео: 720x304 (2.37:1), 24.000 fps, XviD MPEG-4 ~1698 kbps avg, 0.32 bit/pixel
Аудио: 48 kHz, AC3 Dolby Digital, 3/2 (L,C,R,l,r) + LFE ch, ~384 kbps Russian
Аудио 2: 48 kHz, AC3 Dolby Digital, 3/2 (L,C,R,l,r) + LFE ch, ~384 kbps English

MediaInfo

General
Complete name : D:\Torrents\Padenie.Olimpa.2013.D.HDRip.2100MB.avi
Format : AVI
Format/Info : Audio Video Interleave
File size : 2.07 GiB
Duration : 1h 59mn
Overall bit rate : 2 482 Kbps
Movie name : Padenie.Olimpa.2013.D.HDRip.2100MB
Writing application : VirtualDubMod 1.5.10.2 (build 2540/release)
Original source form/Name : Movie
Video #0
ID : 0
Format : MPEG-4 Visual
Format profile : Advanced [email protected]
Format settings, BVOP : 2
Format settings, QPel : No
Format settings, GMC : No warppoints
Format settings, Matrix : Default (MPEG)
Codec ID : XVID
Codec ID/Hint : XviD
Duration : 1h 59mn
Bit rate : 1 700 Kbps
Width : 720 pixels
Height : 304 pixels
Display aspect ratio : 2.35:1
Frame rate : 24.000 fps
Color space : YUV
Chroma subsampling : 4:2:0
Bit depth : 8 bits
Scan type : Progressive
Compression mode : Lossy
Bits/(Pixel*Frame) : 0.324
Stream size : 1.41 GiB (68%)
Writing library : XviD 1.2.1 (UTC 2008-12-04)
Audio #1
ID : 1
Format : AC-3
Format/Info : Audio Coding 3
Mode extension : CM (complete main)
Format settings, Endianness : Big
Codec ID : 2000
Duration : 1h 59mn
Bit rate mode : Constant
Bit rate : 384 Kbps
Channel(s) : 6 channels
Channel positions : Front: L C R, Side: L R, LFE
Sampling rate : 48.0 KHz
Bit depth : 16 bits
Compression mode : Lossy
Stream size : 327 MiB (15%)
Alignment : Split accross interleaves
Interleave, duration : 42 ms (1.00 video frame)
Interleave, preload duration : 500 ms
Audio #2
ID : 2
Format : AC-3
Format/Info : Audio Coding 3
Mode extension : CM (complete main)
Format settings, Endianness : Big
Codec ID : 2000
Duration : 1h 59mn
Bit rate mode : Constant
Bit rate : 384 Kbps
Channel(s) : 6 channels
Channel positions : Front: L C R, Side: L R, LFE
Sampling rate : 48.0 KHz
Bit depth : 16 bits
Compression mode : Lossy
Stream size : 327 MiB (15%)
Alignment : Split accross interleaves
Interleave, duration : 42 ms (1.00 video frame)
Interleave, preload duration : 500 ms

Скриншоты



Последний раз редактировалось: Suxrob89 (2013-06-30 09:10), всего редактировалось 1 раз

Создавать темы 30-Июн-2013 04:13

[Профиль]  [ЛС] 

vitya9608

Стаж: 4 года 9 месяцев

Сообщений: 26

Симпатии: 1

Это чистый звук ,а не лицензия

_________________
Подпись отключена за нарушение правил форума

Создавать темы 30-Июн-2013 07:49

[Профиль]  [ЛС] 

Grock

Стаж: 6 лет 6 месяцев

Сообщений: 637

Симпатии: 113

Поменял на Чистый звук zd

Создавать темы 30-Июн-2013 09:11

[Профиль]  [ЛС] 

aziz2725272

Стаж: 4 года 10 месяцев

Сообщений: 158

Симпатии: 6

а когда лицензия

Создавать темы 30-Июн-2013 11:10

[Профиль]  [ЛС] 

Suxrob89 ®

Стаж: 7 лет

Сообщений: 933

Симпатии: 564

Скоро !!!

Создавать темы 30-Июн-2013 12:09

[Профиль]  [ЛС] 

jen95455

Стаж: 4 года 6 месяцев

Сообщений: 16

Встаньте на раздачу , спасибо.

Создавать темы 30-Июн-2013 13:28

[Профиль]  [ЛС] 

Старый Дядька

Стаж: 4 года 11 месяцев

Сообщений: 566

Симпатии: 400

Здаётся мне Suxrob89.
Торент файл сделан с недокачанного файла.
Несоответствие на 4 Мегабайта.
Проверьте свой файл с оригиналом и источником.

Создавать темы 30-Июн-2013 13:56

[Профиль]  [ЛС] 

Butty

Стаж: 4 года 11 месяцев

Сообщений: 96

Симпатии: 6

Сидов: 3 [ 3 MB/s ] Личеров: 150 [ 3 MB/s ] У МЕНЯ НЕТ СЛОВ... ЛЮДИ КТО СКАЧАЛ НЕ УХОДИТЕ С РАЗДАЧИ .. Уважайте труд других кто сидит на раздаче

Создавать темы 30-Июн-2013 15:05

[Профиль]  [ЛС] 

yura_greek

Стаж: 5 лет 6 месяцев

Сообщений: 59

Симпатии: 6

Помогаю С Раздачей!!!

Создавать темы 30-Июн-2013 15:13

[Профиль]  [ЛС] 

Rasul

Стаж: 5 лет 6 месяцев

Сообщений: 100

Симпатии: 6

Suxrob89, Как всегда во время .....

Создавать темы 30-Июн-2013 17:16

[Профиль]  [ЛС] 

ars

Стаж: 4 года 7 месяцев

Сообщений: 8

фильм на английском что-ли?

Создавать темы 30-Июн-2013 22:16

[Профиль]  [ЛС] 

СтАсИкОс

Стаж: 6 лет 7 месяцев

Сообщений: 314

Симпатии: 20

ars, Нет, во всех разделах кроме фильмов без перевода, есть русский перевод!

Создавать темы 30-Июн-2013 22:30

[Профиль]  [ЛС] 

sverchic

Стаж: 5 лет 3 месяца

Сообщений: 43

Сидов: 3 [ 3 MB/s ] Личеров: 150 [ 3 MB/s ] У МЕНЯ НЕТ СЛОВ... ЛЮДИ КТО СКАЧАЛ НЕ УХОДИТЕ С РАЗДАЧИ .. Уважайте труд других кто сидит на раздаче
Боюсь это крик в пустоту ..... tx более 40 Г раздал, а скачивающих всё больше и больше ta

Создавать темы 01-Июл-2013 10:22

[Профиль]  [ЛС] 

greenvaldstaf

Стаж: 6 лет 9 месяцев

Сообщений: 10

Это у вас что тут народу много а раздачи 0% мб уже на раздачу а ?

Создавать темы 01-Июл-2013 17:52

[Профиль]  [ЛС] 

skyrocker

Стаж: 5 лет 5 месяцев

Сообщений: 96

Симпатии: 3

Давно я не смотрел кино с таким удовольствием!! Вся эта тема с секретной службой, секретные протоколы, звездно полосатый флаг, патриотизм.. И то когда хороший парень действует на нервы плохим)) не помню даже как пролетели эти 2 часа. но я их потратил не зря)))

Создавать темы 01-Июл-2013 20:30

[Профиль]  [ЛС] 
Показать сообщения:    
Ответить на тему

Текущее время: 21-Авг 20:35

Часовой пояс: UTC + 5



Вы не можете начинать темы
Вы не можете отвечать на сообщения
Вы не можете редактировать свои сообщения
Вы не можете удалять свои сообщения
Вы не можете голосовать в опросах
Вы не можете прикреплять файлы к сообщениям
Вы не можете скачивать файлы