Гостья / The Host (Эндрю Никкол) [2013 г., фантастика, драма, мелодрама, HDRip] Лицензия

Страницы :  1, 2  След.

Ответить на тему
 

efremenko_ser ®

Стаж: 7 лет 1 месяц

Сообщений: 99

Симпатии: 4

Гостья / The Host- Год выпуска: 2013
Страна: США
Жанр: фантастика, драма, мелодрама
Продолжительность: 02:05:38
Перевод: Дублированный [Лицензия]
Режиссер: Эндрю Никкол
В ролях: Сирша Ронан, Макс Айронс, Джейк Эйбел, Дайан Крюгер, Уильям Хёрт, Чандлер Кентербери, Фрэнсис Фишер, Скотт Лоуренс, Бойд Холбрук, Мустафа Харрис
Описание: Земля — в опасности! Наше место скоро займут Души — лишенные плотской оболочки пришельцы, вытесняющие из человеческих тел разум и замещающие его разумом собственным. Большая часть человечества уже погибла. Немногие выжившие скрываются в жалкой попытке отсрочить неизбежное… Теперь Душа пытается захватить тело юной Мелани. Однако происходит неожиданное: Мелани и ее Душа вынуждены сосуществовать в одном теле. Гостье надлежало выследить и выдать землян-повстанцев, с которыми связана Мелани, но она помогает своей носительнице.
Качество: HDRip
Формат: AVI
Видео кодек: XviD
Аудио кодек: AC3
Видео: Xvid 720x304 23.976fps 1206Kbps
Аудио: Dolby AC3 48000Hz 6 Audio Channel 448Kbps

Медиаинфо

General
Complete name : D:\Фильмы\Список сайтов сети ТАСИКС\Gostja.2013.D.HDRip.avi
Format : AVI
Format/Info : Audio Video Interleave
File size : 1.46 GiB
Duration : 2h 5mn
Overall bit rate : 1 663 Kbps
Writing application : VirtualDubMod 1.5.10.2 (build 2540/release)
Writing library : VirtualDubMod build 2540/release
Video #0
ID : 0
Format : MPEG-4 Visual
Format profile : Advanced [email protected]
Format settings, BVOP : 2
Format settings, QPel : No
Format settings, GMC : No warppoints
Format settings, Matrix : Default (MPEG)
Codec ID : XVID
Codec ID/Hint : XviD
Duration : 2h 5mn
Bit rate : 1 206 Kbps
Width : 720 pixels
Height : 304 pixels
Display aspect ratio : 2.35:1
Frame rate : 23.976 fps
Color space : YUV
Chroma subsampling : 4:2:0
Bit depth : 8 bits
Scan type : Progressive
Compression mode : Lossy
Bits/(Pixel*Frame) : 0.230
Stream size : 1.06 GiB (73%)
Writing library : XviD 1.2.1 (UTC 2008-12-04)
Audio #1
ID : 1
Format : AC-3
Format/Info : Audio Coding 3
Mode extension : CM (complete main)
Format settings, Endianness : Big
Codec ID : 2000
Duration : 2h 5mn
Bit rate mode : Constant
Bit rate : 448 Kbps
Channel(s) : 6 channels
Channel positions : Front: L C R, Side: L R, LFE
Sampling rate : 48.0 KHz
Bit depth : 16 bits
Compression mode : Lossy
Stream size : 403 MiB (27%)
Alignment : Split accross interleaves
Interleave, duration : 42 ms (1.00 video frame)
Interleave, preload duration : 500 ms

Скриншоты



Последний раз редактировалось: efremenko_ser (2013-07-20 17:14), всего редактировалось 4 раз(а)

Создавать темы 30-Июн-2013 09:55

[Профиль]  [ЛС] 

Старый Дядька

Стаж: 5 лет 1 месяц

Сообщений: 566

Симпатии: 400

Здаётся мне efremenko_ser.
Торент файл сделан с недокачанного файла.
Несоответствие на 4 Мегабайта.
Проверьте свой файл с оригиналом и источником.

Создавать темы 30-Июн-2013 13:57

[Профиль]  [ЛС] 

efremenko_ser ®

Стаж: 7 лет 1 месяц

Сообщений: 99

Симпатии: 4

Здаётся мне efremenko_ser.
Торент файл сделан с недокачанного файла.
Несоответствие на 4 Мегабайта.
Проверьте свой файл с оригиналом и источником.
Да чёто проблема какае то

Создавать темы 30-Июн-2013 16:22

[Профиль]  [ЛС] 

efremenko_ser ®

Стаж: 7 лет 1 месяц

Сообщений: 99

Симпатии: 4

Перекачайте торрент файл возникла проблема

Создавать темы 30-Июн-2013 22:38

[Профиль]  [ЛС] 

james

Стаж: 5 лет 9 месяцев

Сообщений: 113

Симпатии: 2

смотрел для меня скучный фильм ! спс за труд !!!

Создавать темы 01-Июл-2013 10:50

[Профиль]  [ЛС] 

Aragorn

Стаж: 4 года 8 месяцев

Сообщений: 11

Кто нить знает почему у меня не качает ничего ((( у меня узнет

Создавать темы 02-Июл-2013 13:19

[Профиль]  [ЛС] 

Grock

Стаж: 6 лет 8 месяцев

Сообщений: 637

Симпатии: 113

Кто нить знает почему у меня не качает ничего ((( у меня узнет
У вас рейтинг 0,1. При таком рейтинге невозможно скачивание файлов с данного трекера. Вы скачали в 10 раз
больше чем раздавали, поэтому на данный момент скачивание невозможно. Поднимите свой рейтинг путем отдачи
другим пользователем. Если рейтинг упадет ниже значения 0,3 у вас не будет возможности скачивать.

Создавать темы 02-Июл-2013 23:23

[Профиль]  [ЛС] 

Aragorn

Стаж: 4 года 8 месяцев

Сообщений: 11

Спасибо огромное. А вы можете подсказать как я могу раздавать файлы? А то у меня никак не получается((

Создавать темы 03-Июл-2013 09:35

[Профиль]  [ЛС] 

Grock

Стаж: 6 лет 8 месяцев

Сообщений: 637

Симпатии: 113

Спасибо огромное. А вы можете подсказать как я могу раздавать файлы? А то у меня никак не получается((
Конечно, расписал в ЛС. Будут вопросы, пишите.

Создавать темы 03-Июл-2013 09:50

[Профиль]  [ЛС] 

Aragorn

Стаж: 4 года 8 месяцев

Сообщений: 11

Кто нить подскажите пожалуйста как надо заново зарегистрироваться? Или это уже невозможно?

Создавать темы 03-Июл-2013 10:26

[Профиль]  [ЛС] 

Denton

Стаж: 4 года 6 месяцев

Сообщений: 51

Симпатии: 80

Есть кто скачивал предыдущую раздачу?-Гостья / The Host (Эндрю Никкол / Andrew Niccol) [2013, США, фантастика, боевик, триллер, HDRip][чистый звук]
http://tas-ix.net/viewtopic.php?t=68831-Меня интересует, есть ли разница в звуке и качестве картинки?
Заранее СПАСИБО за ответ! cb

Создавать темы 04-Июл-2013 23:41

[Профиль]  [ЛС] 

fraus

Стаж: 6 лет 6 месяцев

Сообщений: 48

Симпатии: 1

народ, у меня почему то вообще не качает. Может кто помочь узнать, в чем причина?

Создавать темы 06-Июл-2013 16:20

[Профиль]  [ЛС] 

Grock

Стаж: 6 лет 8 месяцев

Сообщений: 637

Симпатии: 113

народ, у меня почему то вообще не качает. Может кто помочь узнать, в чем причина?
Привет. у вас слишком много раздач, скорее всего лимит в клиенте utorrent превышен.
Попробуйте проверить в Настройках - Очередность - Максимум активных торентов и вкладку
Максимум одновременных загрузок. Будут вопросы, пишите в ЛС.

Создавать темы 06-Июл-2013 23:36

[Профиль]  [ЛС] 

baxtier

Стаж: 4 года 11 месяцев

Сообщений: 9

у фильма наверное рейтинг 1.9, скукатище

Создавать темы 08-Июл-2013 10:15

[Профиль]  [ЛС] 

Asadovdiyor

Стаж: 5 лет 9 месяцев

Сообщений: 192

сюжет убитый, опять эти любовные сопли :tm:

Создавать темы 09-Июл-2013 14:53

[Профиль]  [ЛС] 
Показать сообщения:    
Ответить на тему

Текущее время: 21-Окт 11:56

Часовой пояс: UTC + 5



Вы не можете начинать темы
Вы не можете отвечать на сообщения
Вы не можете редактировать свои сообщения
Вы не можете удалять свои сообщения
Вы не можете голосовать в опросах
Вы не можете прикреплять файлы к сообщениям
Вы не можете скачивать файлы