Одним меньше / Dead Man Down (Нильс Арден Оплев) [2013 г., боевик, триллер, драма, криминал, HDRip] [чистый звук]

Ответить на тему
 

efremenko_ser ®

Стаж: 7 лет 3 месяца

Сообщений: 99

Симпатии: 4

Одним меньше / Dead Man Down
Год выпуска: 2013
Страна: США
Жанр: боевик, триллер, драма, криминал
Продолжительность: 01:57:46
Перевод: Профессиональный (полное дублирование) [чистый звук]
Режиссер: Нильс Арден Оплев
В ролях: Колин Фаррелл, Нуми Рапас, Терренс Ховард, Доминик Купер, Изабель Юппер, Луис Да Силва мл., Стью Беннетт, Фрэнки Джи, Деклан Мулвей, Джон Ченатьемпо
Описание: История человека по имени Виктор, он правая рука лидера преступной группировки из Нью-Йорка. Виктор неспроста оказался в криминальном синдикате: мафия уничтожила его семью, поэтому он хочет отомстить. Об этом узнает загадочная Беатрис, соблазняет его и шантажирует. Однако у героев только одна цель в жизни — месть. И она приведет их к кровавой развязке.
Качество: HDRip
Формат: AVI
Видео кодек: XviD
Аудио кодек: AC3
Видео: Xvid 720x304 23.98fps 1305Kbps
Аудио: Dolby AC3 48000Hz 6 Audio Channel 448Kbps

Медиаинфо

General
Complete name : D:\Фильмы\Список сайтов сети ТАСИКС\Odnim.menshe.2013.D.HDRip.1400MB.avi
Format : AVI
Format/Info : Audio Video Interleave
File size : 1.45 GiB
Duration : 1h 57mn
Overall bit rate : 1 763 Kbps
Writing application : VirtualDubMod 1.5.10.2 (build 2540/release)
Writing library : VirtualDubMod build 2540/release
Video #0
ID : 0
Format : MPEG-4 Visual
Format profile : Advanced [email protected]
Format settings, BVOP : 2
Format settings, QPel : No
Format settings, GMC : No warppoints
Format settings, Matrix : Default (MPEG)
Codec ID : XVID
Codec ID/Hint : XviD
Duration : 1h 57mn
Bit rate : 1 305 Kbps
Width : 720 pixels
Height : 304 pixels
Display aspect ratio : 2.35:1
Frame rate : 23.976 fps
Color space : YUV
Chroma subsampling : 4:2:0
Bit depth : 8 bits
Scan type : Progressive
Compression mode : Lossy
Bits/(Pixel*Frame) : 0.249
Stream size : 1.07 GiB (74%)
Writing library : XviD 1.2.1 (UTC 2008-12-04)
Audio #1
ID : 1
Format : AC-3
Format/Info : Audio Coding 3
Mode extension : CM (complete main)
Format settings, Endianness : Big
Codec ID : 2000
Duration : 1h 57mn
Bit rate mode : Constant
Bit rate : 448 Kbps
Channel(s) : 6 channels
Channel positions : Front: L C R, Side: L R, LFE
Sampling rate : 48.0 KHz
Bit depth : 16 bits
Compression mode : Lossy
Stream size : 377 MiB (25%)
Alignment : Split accross interleaves
Interleave, duration : 42 ms (1.00 video frame)
Interleave, preload duration : 500 ms

Скриншоты



Последний раз редактировалось: efremenko_ser (2013-06-30 12:56), всего редактировалось 2 раз(а)

Создавать темы 30-Июн-2013 10:17

[Профиль]  [ЛС] 

Butty

Стаж: 5 лет 3 месяца

Сообщений: 96

Симпатии: 6

Когдаа проверят ? Хочется уже посмотреть . давно ждал

Создавать темы 30-Июн-2013 10:39

[Профиль]  [ЛС] 

Grock

Стаж: 6 лет 10 месяцев

Сообщений: 637

Симпатии: 113

Мы все долго ждали zd Говорят хороший фильмец, ну что ж, глянем)

Создавать темы 30-Июн-2013 10:42

[Профиль]  [ЛС] 

Rasul

Стаж: 5 лет 10 месяцев

Сообщений: 100

Симпатии: 6

Как зовут главного актера?

Создавать темы 30-Июн-2013 14:22

[Профиль]  [ЛС] 

Grock

Стаж: 6 лет 10 месяцев

Сообщений: 637

Симпатии: 113

Как зовут главного актера?
Колин Фаррелл

Создавать темы 30-Июн-2013 15:25

[Профиль]  [ЛС] 

efremenko_ser ®

Стаж: 7 лет 3 месяца

Сообщений: 99

Симпатии: 4

Фильм улётный!!!Ждал пока в хорошей озвучке выйдет!!!

Создавать темы 30-Июн-2013 16:26

[Профиль]  [ЛС] 

Rasul

Стаж: 5 лет 10 месяцев

Сообщений: 100

Симпатии: 6

Grock, Спасибо у чела талант уважаю его...

Создавать темы 30-Июн-2013 17:18

[Профиль]  [ЛС] 

skyrocker

Стаж: 5 лет 9 месяцев

Сообщений: 96

Симпатии: 3

Колин хорош, как и всегда.. Сколько боли в его глазах...

Создавать темы 01-Июл-2013 22:30

[Профиль]  [ЛС] 

MiamiBoy

Стаж: 6 лет 7 месяцев

Сообщений: 136

Симпатии: 7

ну че скачавшие, как звук?

Создавать темы 02-Июл-2013 04:20

[Профиль]  [ЛС] 

isuses

Стаж: 6 лет 4 месяца

Сообщений: 16

фильм супер на 5+ !!

Создавать темы 02-Июл-2013 15:39

[Профиль]  [ЛС] 

SeabiscuiT

Стаж: 4 года 9 месяцев

Сообщений: 56

Симпатии: 4

качайте, смотрите...фильм норм!!!

Создавать темы 19-Июл-2013 21:00

[Профиль]  [ЛС] 

server10

Стаж: 4 года 8 месяцев

Сообщений: 32

да филм перфект довно не наслаждалься с прасмотрм после эффект калибра

Создавать темы 23-Июл-2013 00:42

[Профиль]  [ЛС] 

IIIoK92

Стаж: 4 года 7 месяцев

Сообщений: 6

хороший, качественный, интересный боевик!

Создавать темы 25-Июл-2013 00:32

[Профиль]  [ЛС] 

azizbek82

Стаж: 5 лет 2 месяца

Сообщений: 3

филм супер хорошей боевик..

Создавать темы 04-Авг-2013 19:25

[Профиль]  [ЛС] 

DrJJ

Стаж: 4 года 11 месяцев

Сообщений: 6

Дайте скачать плз, а то торрент 2-й день не может найти пиров

Создавать темы 05-Ноя-2014 12:06

[Профиль]  [ЛС] 
Показать сообщения:    
Ответить на тему

Текущее время: 17-Дек 09:27

Часовой пояс: UTC + 5



Вы не можете начинать темы
Вы не можете отвечать на сообщения
Вы не можете редактировать свои сообщения
Вы не можете удалять свои сообщения
Вы не можете голосовать в опросах
Вы не можете прикреплять файлы к сообщениям
Вы не можете скачивать файлы