Остров погибших кораблей (Евгений Гинзбург, Рауф Мамедов) [1987, музыкальная фантазия в стиле "буфф", DVDRip-AVC]

Ответить на тему
 

Robot-IX ®

Стаж: 5 лет 5 месяцев

Сообщений: 223

Симпатии: 9

Остров погибших кораблей (2 серии)-- Год выпуска: 1987
Страна: СССР
Студия: ЛЕНФИЛЬМ.
Жанр: комедия, музыкальная фантазия в стиле "буфф"
Продолжительность: 02:10:28 (01:03:15 + 01:07:13)
Звук: оригинальная дорожка - русский-Режиссёр: Евгений Гинзбург, Рауф Мамедов
Сценарий: Евгений Гинзбург, Аркадий Кленов, Рауф Мамедов, ...
Оператор: Валерий Миронов
Композитор: Александр Басилая, Владимир Чекасин, Георгий Гаранян, ...
тексты песен: Юрий Ряшенцев
Вокал: Лариса Долина, Любовь Привина, Эмиль Фидельман, Нина Матвеева, Николай Носков, Владимир Стёпин, Сергей Минаев, Михаил Похманов, Павел Смеян, Владимир Пресняков младший
Директор фильма: Анатолий Шехтман-В ролях: Лариса Белогурова, Гедиминас Сторпирштис, Николай Лавров, Костантин Райкин, Наталья Лапина, Арунас Сторпирстис, Лилиан Малкина, Гали Абайдулов, Валентин Жиляев, Сергей Паршин ...-Описание:
После очередной ссоры с женой герой фильма «переносится» в прошлое, где попадает в водоворот странных событий: арест по обвинению в убийстве, встреча с прекрасной Вивиан, которая так похожа на его жену, кораблекрушение.
В результате молодые люди оказываются на затерянном в океане «острове погибших кораблей». Население острова составляют моряки, пираты, путешественники. Девушке предстоит по жребию достаться одному из обитателей в жены…-Доп. информация:
КиноПоиск: 7.060/10
MPAA: 0+для любой зрительской аудитории-Качество: DVDRip - исходник DVD9
Формат: MKV/AVC (Matroska)
Видео кодек: AVC/H.264
Аудио кодек: AC-3
Видео:
1 серия - 720x544 (4:3), 25 fps, 1945 kbps, 0.199 bit/pixel
2 серия - 720x544 (4:3), 25 fps, 1995 kbps, 0.204 bit/pixel
Аудио: AC3 Dolby Digital, 3/2 (L,C,R,l,r) + LFE ch, 48 kHz, 448.00 kbps-

MediaInfo

General
Unique ID : 163667509858987691162722107027244492983 (0x7B21373FB8DA226EF822849852E0A8B7)
Complete name : D:\Torent\Остров погибших кораблей (2-серии)\часть.1.mkv
Format : Matroska
Format version : Version 2
File size : 1.06 GiB
Duration : 1h 3mn
Overall bit rate : 2 396 Kbps
Writing application : Lavf52.94.0
Writing library : Lavf52.94.0
Video
ID : 1
Format : AVC
Format/Info : Advanced Video Codec
Format profile : [email protected]
Format settings, CABAC : Yes
Format settings, ReFrames : 2 frames
Codec ID : V_MPEG4/ISO/AVC
Duration : 1h 3mn
Bit rate : 1 945 Kbps
Width : 720 pixels
Height : 544 pixels
Display aspect ratio : 4:3
Frame rate mode : Variable / Variable
Frame rate : 25.000 fps
Color space : YUV
Chroma subsampling : 4:2:0
Bit depth : 8 bits
Scan type : Progressive
Bits/(Pixel*Frame) : 0.199
Stream size : 860 MiB (79%)
Writing library : x264 core 112 r1834 a51816a
Encoding settings : cabac=1 / ref=2 / deblock=1:0:0 / analyse=0x3:0x113 / me=hex / subme=6 / psy=1 / psy_rd=1.00:0.00 / mixed_ref=0 / me_range=16 / chroma_me=1 / trellis=0 / 8x8dct=1 / cqm=0 / deadzone=21,11 / fast_pskip=1 / chroma_qp_offset=-2 / threads=4 / sliced_threads=0 / nr=0 / decimate=1 / interlaced=0 / constrained_intra=0 / bframes=3 / b_pyramid=0 / b_adapt=1 / b_bias=0 / direct=3 / weightb=1 / open_gop=0 / weightp=2 / keyint=250 / keyint_min=25 / scenecut=40 / intra_refresh=0 / rc_lookahead=40 / rc=2pass / mbtree=1 / bitrate=1945 / ratetol=1.0 / qcomp=0.60 / qpmin=10 / qpmax=51 / qpstep=4 / cplxblur=20.0 / qblur=0.5 / ip_ratio=1.41 / aq=1:1.00
Default : Yes
Forced : No
Audio
ID : 2
Format : AC-3
Format/Info : Audio Coding 3
Mode extension : CM (complete main)
Format settings, Endianness : Big
Codec ID : A_AC3
Duration : 1h 3mn
Bit rate mode : Constant
Bit rate : 448 Kbps
Channel(s) : 6 channels
Channel positions : Front: L C R, Side: L R, LFE
Sampling rate : 48.0 KHz
Bit depth : 16 bits
Compression mode : Lossy
Stream size : 203 MiB (19%)
Default : Yes
Forced : No
General
Unique ID : 50507370943069137728053380431995826884 (0x25FF5DA5CCBAEBA0B12D09E5FC1172C4)
Complete name : D:\Torent\Остров погибших кораблей (2-серии)\часть.2.mkv
Format : Matroska
Format version : Version 2
File size : 1.15 GiB
Duration : 1h 7mn
Overall bit rate : 2 445 Kbps
Writing application : Lavf52.94.0
Writing library : Lavf52.94.0
Video
ID : 1
Format : AVC
Format/Info : Advanced Video Codec
Format profile : [email protected]
Format settings, CABAC : Yes
Format settings, ReFrames : 2 frames
Codec ID : V_MPEG4/ISO/AVC
Duration : 1h 7mn
Bit rate : 1 995 Kbps
Width : 720 pixels
Height : 544 pixels
Display aspect ratio : 4:3
Frame rate mode : Variable / Variable
Frame rate : 25.000 fps
Color space : YUV
Chroma subsampling : 4:2:0
Bit depth : 8 bits
Scan type : Progressive
Bits/(Pixel*Frame) : 0.204
Stream size : 937 MiB (80%)
Writing library : x264 core 112 r1834 a51816a
Encoding settings : cabac=1 / ref=2 / deblock=1:0:0 / analyse=0x3:0x113 / me=hex / subme=6 / psy=1 / psy_rd=1.00:0.00 / mixed_ref=0 / me_range=16 / chroma_me=1 / trellis=0 / 8x8dct=1 / cqm=0 / deadzone=21,11 / fast_pskip=1 / chroma_qp_offset=-2 / threads=4 / sliced_threads=0 / nr=0 / decimate=1 / interlaced=0 / constrained_intra=0 / bframes=3 / b_pyramid=0 / b_adapt=1 / b_bias=0 / direct=3 / weightb=1 / open_gop=0 / weightp=2 / keyint=250 / keyint_min=25 / scenecut=40 / intra_refresh=0 / rc_lookahead=40 / rc=2pass / mbtree=1 / bitrate=1995 / ratetol=1.0 / qcomp=0.60 / qpmin=10 / qpmax=51 / qpstep=4 / cplxblur=20.0 / qblur=0.5 / ip_ratio=1.41 / aq=1:1.00
Default : Yes
Forced : No
Audio
ID : 2
Format : AC-3
Format/Info : Audio Coding 3
Mode extension : CM (complete main)
Format settings, Endianness : Big
Codec ID : A_AC3
Duration : 1h 7mn
Bit rate mode : Constant
Bit rate : 448 Kbps
Channel(s) : 6 channels
Channel positions : Front: L C R, Side: L R, LFE
Sampling rate : 48.0 KHz
Bit depth : 16 bits
Compression mode : Lossy
Stream size : 215 MiB (18%)
Default : Yes
Forced : No

Скриншоты / 1-серия










Скриншоты / 2-серия










Создавать темы 01-Июл-2013 19:23

[Профиль]  [ЛС] 
Показать сообщения:    
Ответить на тему

Текущее время: 21-Сен 10:16

Часовой пояс: UTC + 5



Вы не можете начинать темы
Вы не можете отвечать на сообщения
Вы не можете редактировать свои сообщения
Вы не можете удалять свои сообщения
Вы не можете голосовать в опросах
Вы не можете прикреплять файлы к сообщениям
Вы не можете скачивать файлы