Рыбка Поньо на утесе / Gake no ue no Ponyo (Хаяо Миядзаки)[RUS] [2008 г., Приключения, семейный, DVDRip]

Ответить на тему
 

pbyeh ®

Стаж: 5 лет 5 месяцев

Сообщений: 33

Симпатии: 2

Рыбка Поньо на утесе / Ponyo on the Cliff by the Sea / Gake no ue no Ponyo
Год выпуска: 2008
Страна: Япония, The Walt Disney Company / Toho Company / Studio Ghibli
Жанр: Приключения, семейный
Продолжительность: 01:36:41
Перевод: Профессиональный (полное дублирование)
Русские субтитры: нет
Режиссер: Хаяо Миядзаки
Студия: Studio Ghibli

В ролях: Рыбки и иная морская нечисть
Описание: Маленькая любопытная рыбка Поньо — дочь колдуна и прекрасной морской богини уплывает из дома, чтобы понаблюдать за жизнью людей. Поньо застревает в банке и оказывается выброшенной на берег. Ее подбирает пятилетний Сооскэ. Малыши привязываются друг к другу. И теперь у Поньо только одно желание — стать человеком!
Качество: DVDRip
Формат: AVI
Видео кодек: XviD
Аудио кодек: AC3
Видео: 1570 kb/s, 704x368
Аудио: AC3, 448 kb/s (6 ch)

Тех.данные

General
Complete name : D:\Rybka.Pono.na.utese.2008.D.DVDRip_STAR-VIDEO.avi
Format : AVI
Format/Info : Audio Video Interleave
File size : 1.37 GiB
Duration : 1h 36mn
Overall bit rate : 2 024 Kbps
Writing application : VirtualDubMod 1.5.10.2 (build 2540/release)
Writing library : VirtualDubMod build 2540/release
Video
ID : 0
Format : MPEG-4 Visual
Format profile : Advanced [email protected]
Format settings, BVOP : 2
Format settings, QPel : No
Format settings, GMC : No warppoints
Format settings, Matrix : Default (MPEG)
Muxing mode : Packed bitstream
Codec ID : XVID
Codec ID/Hint : XviD
Duration : 1h 36mn
Bit rate : 1 566 Kbps
Width : 704 pixels
Height : 368 pixels
Display aspect ratio : 1.913
Frame rate : 25.000 fps
Color space : YUV
Chroma subsampling : 4:2:0
Bit depth : 8 bits
Scan type : Progressive
Compression mode : Lossy
Bits/(Pixel*Frame) : 0.242
Stream size : 1.06 GiB (77%)
Writing library : XviD 1.2.1 (UTC 2008-12-04)
Audio
ID : 1
Format : AC-3
Format/Info : Audio Coding 3
Mode extension : CM (complete main)
Format settings, Endianness : Big
Codec ID : 2000
Duration : 1h 36mn
Bit rate mode : Constant
Bit rate : 448 Kbps
Channel(s) : 6 channels
Channel positions : Front: L C R, Side: L R, LFE
Sampling rate : 48.0 KHz
Bit depth : 16 bits
Compression mode : Lossy
Stream size : 310 MiB (22%)
Alignment : Split accross interleaves
Interleave, duration : 40 ms (1.00 video frame)
Interleave, preload duration : 500 ms

Скриншоты






Приятного просмотра !!МОИ РАЗДАЧИ
Могила светлячков
Ариэтти из страны лилипутов
Шепот сердца
Порко Россо
Навсикая из долины ветров
Наши соседи - семья Ямада


Последний раз редактировалось: pbyeh (2013-11-08 19:49), всего редактировалось 4 раз(а)

Создавать темы 02-Июл-2013 18:28

[Профиль]  [ЛС] 

pbyeh ®

Стаж: 5 лет 5 месяцев

Сообщений: 33

Симпатии: 2

Раздача завтра к вечеру !

Создавать темы 02-Июл-2013 22:15

[Профиль]  [ЛС] 

kumamoto

Стаж: 4 года 4 месяца

Сообщений: 7

Отличный, добрый фильм, возвращающий мыслями в детство, когда все было просто и весело, наполнено приключениями и новыми открытиями.
Миязаки - мастер своего дела.

Создавать темы 02-Июл-2013 22:53

[Профиль]  [ЛС] 

ukku

Стаж: 3 года 10 месяцев

Сообщений: 1

дайте пожалуйста раздачу

Создавать темы 19-Дек-2013 19:32

[Профиль]  [ЛС] 
Показать сообщения:    
Ответить на тему

Текущее время: 21-Окт 17:22

Часовой пояс: UTC + 5



Вы не можете начинать темы
Вы не можете отвечать на сообщения
Вы не можете редактировать свои сообщения
Вы не можете удалять свои сообщения
Вы не можете голосовать в опросах
Вы не можете прикреплять файлы к сообщениям
Вы не можете скачивать файлы