Аравт – 10 солдат Чингисхана / ARAVT - The Ten Soldiers of Chinggis Khaan (Д. Золбаяр, У. Шагдарсүрэн) [2012 г., Военный, DVDRip]

Ответить на тему
 

Nosferatu ®

Стаж: 4 года 5 месяцев

Сообщений: 79

Симпатии: 5

Аравт – 10 солдат Чингисхана
ARAVT - The Ten Soldiers of Chinggis Khaan


Год выпуска: 2012
Страна: Монголия
Жанр: Военный
Продолжительность: 01:32:02
Перевод: Профессиональный (многоголосый, закадровый)-Режиссер: Д. Золбаяр, У. Шагдарсүрэн-В ролях:
T. Altanshagai, B. Amarcanihan, C. Ariunbyamba, Аюрдади, Баасанжав, Bodi, Buyanhexig, Д. Ганцэцэг, D. Gurse, Жамбал-Описание:
13 век, период когда Чингисхан вел борьбу, направленную на объединение монгольских племен. После одной из жестоких битв с восставшим племенем среди его солдат разразилась эпидемия чумы. Чингисхан отдает приказ подразделению из 10 воинов (десяток – аравт) найти известного врачевателя живущего в далеких горах, недалеко от кочевий восставшего племени. Какие опасности лежат на пути этих 10 воинов известно одному лишь Вечному Синему небу.-Доп. информация:
Бюджет: $3 500 000
Рейтинг КиноПоиск.Ru: 5.231 (33)
Рейтинг IMDb: 5.5 (146)-Качество: DVDRip
Формат: AVI
Видео кодек: DivX
Аудио кодек: AC3
Видео: DivX 5 720x304 23.976fps 1 997 Kbps [Stream 00]
Аудио: Dolby AC3 48000Hz stereo 192kbps [Stream 01]

MI

Format : AVI
Format/Info : Audio Video Interleave
File size : 1.41 GiB
Duration : 1h 32mn
Overall bit rate : 2 199 Kbps
Movie name : Aravt-The.Ten.Soldiers.of.Chinggis.Khaan.(DVDRip).Trivor
Director : Release by Trivor
Writing application : VirtualDubMod 1.5.10.3 (build 2550/release)
Video
ID : 0
Format : MPEG-4 Visual
Format settings, BVOP : No
Format settings, QPel : No
Format settings, GMC : No warppoints
Format settings, Matrix : Default (H.263)
Codec ID : DX50
Codec ID/Hint : DivX 5
Duration : 1h 32mn
Bit rate : 1 997 Kbps
Width : 720 pixels
Height : 304 pixels
Display aspect ratio : 16:9
Original display aspect ratio : 2.35:1
Frame rate : 23.976 fps
Color space : YUV
Chroma subsampling : 4:2:0
Bit depth : 8 bits
Scan type : Progressive
Compression mode : Lossy
Bits/(Pixel*Frame) : 0.381
Stream size : 1.28 GiB (91%)
Writing library : DivX 5.2.1 (WaffleDay) (UTC 2004-09-08)
Audio
ID : 1
Format : AC-3
Format/Info : Audio Coding 3
Mode extension : CM (complete main)
Format settings, Endianness : Big
Codec ID : 2000
Duration : 1h 32mn
Bit rate mode : Constant
Bit rate : 192 Kbps
Channel(s) : 2 channels
Channel positions : Front: L R
Sampling rate : 48.0 KHz
Bit depth : 16 bits
Compression mode : Lossy
Stream size : 126 MiB (9%)
Alignment : Split accross interleaves
Interleave, duration : 42 ms (1.00 video frame)
Interleave, preload duration : 500 ms

Скриншоты











Создавать темы 02-Июл-2013 23:54

[Профиль]  [ЛС] 

avaz

Стаж: 7 лет 3 месяца

Сообщений: 16

Фильм не так уж хорош! Я бы дал 2 из 5

Создавать темы 10-Июл-2013 12:05

[Профиль]  [ЛС] 
Показать сообщения:    
Ответить на тему

Текущее время: 20-Авг 10:52

Часовой пояс: UTC + 5



Вы не можете начинать темы
Вы не можете отвечать на сообщения
Вы не можете редактировать свои сообщения
Вы не можете удалять свои сообщения
Вы не можете голосовать в опросах
Вы не можете прикреплять файлы к сообщениям
Вы не можете скачивать файлы