Взлет / Lifted (Лекси Александр) [2010 г., драма, DVDRip-AVC]

Ответить на тему
 

extrimal1994 ®

Стаж: 4 года 6 месяцев

Сообщений: 153

Симпатии: 26

Взлет / Lifted
Год выпуска: 2010
Страна: США
Жанр: драма
Продолжительность: 01:48:15
Перевод: Любительский (одноголосый)
Режиссер: Лекси Александр
В ролях: Никки Эйкокс
Урия Шелтон
Дэш Майок
Тэд Миклер
Рубен Стаддард
Ховард Грин
Барбара Кинкейд-Хилл
Джеймс Хэнди
Джонатан Фуллер
Дэнни Винсон
Описание: У ученика средней школы Генри много своих проблем. Мать — наркоманка со стажем, дед — расист, и, вдобавок, отца — резервиста для исполнения своей воинской обязанности забирают в Афганистан. Скромной зарплаты его отца только и достаточно, чтобы держать свою семью на плаву. В городе проходят соревнования по пению, и Генри решает выступить на них.
 
Качество: DVDRip - AVC
Формат: MKV
Видео данные: V_MPEG4/ISO/AVC, 750 Кбит/с, 720х462
Аудио данные: AC3, 6 ch, 448кбит/с
Аудио данные2: AC3, 6 ch, 448кбит/с

Скриншоты




Доп.информация

Присутствуют тексты на русском из песен

Медиа Инфо

General
Unique ID : 180262317448581318433696586471693684191 (0x879D426EB731D2E48256C7CEE0890DDF)
Complete name : D:\Lifted_2010_built-in_by_barbos.mkv
Format : Matroska
Format version : Version 2
File size : 1.27 GiB
Duration : 1h 48mn
Overall bit rate : 1 680 Kbps
Encoded date : UTC 2012-01-21 19:48:32
Writing application : mkvmerge v3.3.0 ('Language') built on Mar 24 2010 14:59:24
Writing library : libebml v0.8.0 + libmatroska v0.9.0
Video
ID : 1
Format : AVC
Format/Info : Advanced Video Codec
Format profile : [email protected]
Format settings, CABAC : Yes
Format settings, ReFrames : 4 frames
Codec ID : V_MPEG4/ISO/AVC
Duration : 1h 48mn
Bit rate : 750 Kbps
Width : 720 pixels
Height : 462 pixels
Display aspect ratio : 16:9
Original display aspect ratio : 16:9
Frame rate mode : Variable
Frame rate : 23.976 fps
Color space : YUV
Chroma subsampling : 4:2:0
Bit depth : 8 bits
Scan type : Progressive
Bits/(Pixel*Frame) : 0.094
Stream size : 581 MiB (45%)
Writing library : x264 core 112
Encoding settings : cabac=1 / ref=2 / deblock=1:0:0 / analyse=0x1:0x111 / me=hex / subme=6 / psy=1 / psy_rd=1.00:0.00 / mixed_ref=0 / me_range=16 / chroma_me=1 / trellis=0 / 8x8dct=0 / cqm=0 / deadzone=21,11 / fast_pskip=1 / chroma_qp_offset=-2 / threads=9 / sliced_threads=0 / nr=0 / decimate=1 / interlaced=0 / constrained_intra=0 / bframes=2 / b_pyramid=2 / b_adapt=1 / b_bias=0 / direct=1 / weightb=0 / open_gop=0 / weightp=2 / keyint=240 / keyint_min=23 / scenecut=40 / intra_refresh=0 / rc_lookahead=40 / rc=crf / mbtree=1 / crf=20.0 / qcomp=0.60 / qpmin=3 / qpmax=51 / qpstep=4 / ip_ratio=1.40 / aq=1:1.00
Default : Yes
Forced : No
Color primaries : BT.601-6 525, BT.1358 525, BT.1700 NTSC, SMPTE 170M
Transfer characteristics : BT.709-5, BT.1361
Matrix coefficients : BT.601-6 525, BT.1358 525, BT.1700 NTSC, SMPTE 170M
Audio #1
ID : 2
Format : AC-3
Format/Info : Audio Coding 3
Mode extension : CM (complete main)
Codec ID : A_AC3
Duration : 1h 48mn
Bit rate mode : Constant
Bit rate : 448 Kbps
Channel(s) : 6 channels
Channel positions : Front: L C R, Side: L R, LFE
Sampling rate : 48.0 KHz
Bit depth : 16 bits
Compression mode : Lossy
Stream size : 347 MiB (27%)
Title : RUS
Language : Russian
Default : Yes
Forced : No
Audio #2
ID : 3
Format : AC-3
Format/Info : Audio Coding 3
Mode extension : CM (complete main)
Codec ID : A_AC3
Duration : 1h 48mn
Bit rate mode : Constant
Bit rate : 448 Kbps
Channel(s) : 6 channels
Channel positions : Front: L C R, Side: L R, LFE
Sampling rate : 48.0 KHz
Bit depth : 16 bits
Compression mode : Lossy
Stream size : 347 MiB (27%)
Title : ENG
Language : English
Default : No
Forced : No
Text #1
ID : 4
Format : UTF-8
Codec ID : S_TEXT/UTF8
Codec ID/Info : UTF-8 Plain Text
Title : SONGS
Language : Russian
Default : Yes
Forced : No
Text #2
ID : 5
Format : UTF-8
Codec ID : S_TEXT/UTF8
Codec ID/Info : UTF-8 Plain Text
Title : ALL
Language : Russian
Default : No
Forced : No


Последний раз редактировалось: extrimal1994 (2013-07-04 10:53), всего редактировалось 5 раз(а)

Создавать темы 04-Июл-2013 09:51

[Профиль]  [ЛС] 

extrimal1994 ®

Стаж: 4 года 6 месяцев

Сообщений: 153

Симпатии: 26

ой, переместите пожалуйста мой релиз на "фильмы 2010" я не то нажал нечаянно )

Создавать темы 04-Июл-2013 10:09

[Профиль]  [ЛС] 

Grock

Стаж: 6 лет 6 месяцев

Сообщений: 637

Симпатии: 113

Переместил в форум HD-AVC, так как формат файла MKV и качество DVDRip- AVC.
Скриншоты проверьте еще раз, разрешение по вертикали - 462 не кратно 16.

Создавать темы 04-Июл-2013 10:32

[Профиль]  [ЛС] 
Показать сообщения:    
Ответить на тему

Текущее время: 21-Авг 15:25

Часовой пояс: UTC + 5



Вы не можете начинать темы
Вы не можете отвечать на сообщения
Вы не можете редактировать свои сообщения
Вы не можете удалять свои сообщения
Вы не можете голосовать в опросах
Вы не можете прикреплять файлы к сообщениям
Вы не можете скачивать файлы