Паркер / Parker (CША) [2013 г., Боевик, триллер, криминал, HDRip]

Ответить на тему
 

Scarpion0990 ®

Стаж: 4 года 10 месяцев

Сообщений: 66

Симпатии: 11

Паркер / Parker
«To get away clean, you have to play dirty.»
Год выпуска: 2013
Жанр: Боевик, триллер, криминал
Продолжительность: 01:58:40
Страна: США
Язык: Англ.( ориг. )
Субтитры: Есть( анг. )
Режиссер: Тейлор Хэкфорд / Taylor Hackford
В ролях: Джейсон Стэтхэм — Паркер
Дженнифер Лопес — Лесли
Майкл Чиклис — Меландер
Клифтон Коллинз-младший — Росс
Уэнделл Пирс — Карлсон
Мика А. Хауптман — Хардвик
Ник Нолти — Хёрли
Пэтти Люпон — мать Лесли
Бобби Каннавале — Джейк Фернандес
Даниэл Бернхардт — Кролл
Эмма Бут — Клэр
Описание: Главный герой – вор-профессионал, который руководствуется собственным моральным кодексом, однако способный запросто отправить на тот свет любого, кто попробует перейти ему дорогу.
Доп. информация: Это первый фильм, основанный на романах Дональда Уэстлейка, где главного героя зовут, как и в книгах — Паркер.
Качество: HDRip
Формат: MKV
Видео кодек: XviD
Аудио кодек: AC3
Видео: 1723 Кбит/с, 720x304,23.976fps
Аудио: АС3, 6 ch, 448 Кбит/с,48.0khz
 

MI

Parker.2013.D.HDRip.mkv
   General
      Complete name : Parker.2013.D.HDRip.mkv
      Format : Matroska
      Format version : Version 4 / Version 2
      File size : 1.80 GiB
      Duration : 1h 58mn
      Overall bit rate : 2 174 Kbps
      Encoded date : UTC 2013-07-04 12:59:59
      Writing application : mkvmerge v6.2.0 ('Promised Land') built on Apr 28 2013 12:22:01
      Writing library : libebml v1.3.0 + libmatroska v1.4.0
      Attachment : Yes
   Video #1
      ID : 1
      Format : MPEG-4 Visual
      Format profile : Advanced [email protected]
      Format settings, BVOP : Yes
      Format settings, QPel : No
      Format settings, GMC : No warppoints
      Format settings, Matrix : Default (MPEG)
      Codec ID : V_MS/VFW/FOURCC / XVID
      Codec ID/Hint : XviD
      Duration : 1h 58mn
      Bit rate : 1 682 Kbps
      Width : 720 pixels
      Height : 304 pixels
      Display aspect ratio : 2.35:1
      Frame rate mode : Constant
      Frame rate : 23.976 fps
      Color space : YUV
      Chroma subsampling : 4:2:0
      Bit depth : 8 bits
      Scan type : Progressive
      Compression mode : Lossy
      Bits/(Pixel*Frame) : 0.321
      Stream size : 1.39 GiB (77%)
      Writing library : XviD 1.2.1 (UTC 2008-12-04)
      Default : Yes
      Forced : No
   Audio #2
      ID : 2
      Format : AC-3
      Format/Info : Audio Coding 3
      Mode extension : CM (complete main)
      Format settings, Endianness : Big
      Codec ID : A_AC3
      Duration : 1h 58mn
      Bit rate mode : Constant
      Bit rate : 448 Kbps
      Channel(s) : 6 channels
      Channel positions : Front: L C R, Side: L R, LFE
      Sampling rate : 48.0 KHz
      Bit depth : 16 bits
      Compression mode : Lossy
      Stream size : 380 MiB (21%)
      Default : Yes
      Forced : No

Скриншоты



Создавать темы 04-Июл-2013 18:24

[Профиль]  [ЛС] 

vays

Стаж: 3 года 10 месяцев

Сообщений: 13

Симпатии: 1

skorst nado

Создавать темы 07-Апр-2014 10:19

[Профиль]  [ЛС] 

Abay

Стаж: 3 года 10 месяцев

Сообщений: 16

Симпатии: 1

cкорост

Создавать темы 08-Апр-2014 18:26

[Профиль]  [ЛС] 

Abay

Стаж: 3 года 10 месяцев

Сообщений: 16

Симпатии: 1

na konec to skachal film. spasibo :-)

Создавать темы 20-Май-2014 09:20

[Профиль]  [ЛС] 
Показать сообщения:    
Ответить на тему

Текущее время: 12-Дек 13:31

Часовой пояс: UTC + 5



Вы не можете начинать темы
Вы не можете отвечать на сообщения
Вы не можете редактировать свои сообщения
Вы не можете удалять свои сообщения
Вы не можете голосовать в опросах
Вы не можете прикреплять файлы к сообщениям
Вы не можете скачивать файлы