Объезд / Detour (Уильям Дикерсон) [2013 г., триллер, WEBDL-Rip]

Ответить на тему
 

igor1968 ®

Стаж: 5 лет 6 месяцев

Сообщений: 366

Симпатии: 197

Объезд / Detour
Год выпуска: 2013
Страна:
Жанр: триллер, ..
Продолжительность: 01:26:29.934
Перевод: Любительский (одноголосый) [den904]
Режиссер: Уильям Дикерсон
В ролях: Нил Хопкинс,Бри Грант,Джон Форест,Птолеми Слокам,Дэб Снайдер
: Попав под оползень, Джексон Олдер оказывается пленником своего автомобиля. Оставшись без надежды на спасение, он вынужден бороться за свою жизнь…   Качество: WEB-DLRip
Формат: AVI
Видео кодек: MPEG4
Аудио кодек: MPEG Audio
Видео: 720x304 (2.37:1), 23.976 fps, ~1380 kbps avg, 0.26 bit/pixel
Аудио: 48 kHz, MPEG Layer 3, 2 ch, ~320.00 kbps avg

MediaInfo

General
Complete name :Detour.2013.WEBDL-Rip.avi
Format : AVI
Format/Info : Audio Video Interleave
Format profile : OpenDML
File size : 1.03 GiB
Duration : 1h 26mn
Overall bit rate : 1 707 Kbps
Writing application : Lavf54.63.104
Video
ID : 0
Format : MPEG-4 Visual
Format profile : [email protected]
Format settings, BVOP : No
Format settings, QPel : No
Format settings, GMC : No warppoints
Format settings, Matrix : Default (H.263)
Codec ID : FMP4
Duration : 1h 26mn
Bit rate : 1 370 Kbps
Width : 720 pixels
Height : 304 pixels
Display aspect ratio : 2.35:1
Frame rate : 23.976 fps
Color space : YUV
Chroma subsampling : 4:2:0
Bit depth : 8 bits
Scan type : Progressive
Compression mode : Lossy
Bits/(Pixel*Frame) : 0.261
Stream size : 848 MiB (80%)
Writing library : Lavc54.92.100
Audio
ID : 1
Format : MPEG Audio
Format version : Version 1
Format profile : Layer 3
Mode : Joint stereo
Mode extension : MS Stereo
Codec ID : 55
Codec ID/Hint : MP3
Duration : 1h 26mn
Bit rate mode : Constant
Bit rate : 320 Kbps
Channel(s) : 2 channels
Sampling rate : 48.0 KHz
Compression mode : Lossy
Stream size : 198 MiB (19%)
Alignment : Aligned on interleaves
Interleave, duration : 24 ms (0.58 video frame)
Writing library : LAME3.99.5ЄЄЄїяпяяя

Скриншоты



Последний раз редактировалось: igor1968 (2013-07-05 12:49), всего редактировалось 2 раз(а)

Создавать темы 05-Июл-2013 08:29

[Профиль]  [ЛС] 

Titanum

Стаж: 4 года 11 месяцев

Сообщений: 39

Симпатии: 1

127 часов на новый лад :tm:

Создавать темы 05-Июл-2013 08:39

[Профиль]  [ЛС] 

laministik

Стаж: 5 лет

Сообщений: 24

127 часов на новый лад :tm:
Не говори сразу вспоминается этот фильм :) Но черт побери я обожаю триллеры и такие фильмы! :))

Создавать темы 05-Июл-2013 12:36

[Профиль]  [ЛС] 
Показать сообщения:    
Ответить на тему

Текущее время: 27-Сен 02:04

Часовой пояс: UTC + 5



Вы не можете начинать темы
Вы не можете отвечать на сообщения
Вы не можете редактировать свои сообщения
Вы не можете удалять свои сообщения
Вы не можете голосовать в опросах
Вы не можете прикреплять файлы к сообщениям
Вы не можете скачивать файлы