42 / 42 (Брайан Хелгеленд) [2013г.,драма, биография, спорт BDRip] | P

Ответить на тему
 

mp1988 ®

Стаж: 6 лет 7 месяцев

Сообщений: 607

Симпатии: 971

42«In a game divided by color, he made us see greatness.»
-Год выпуска: 2013
Страна: США
Жанр: драма, биография, спорт
Продолжительность: 02:08:14
Перевод: Профессиональный (многоголосый, закадровый)
Субтитры: Русские (iTunes), Английские (SDH)-Режиссер: Брайан Хелгеленд
Сценарий: Брайан Хелгеленд
Продюсер: Томас Тулл, Джейсон Кларк, Дик Кук, ...
Оператор: Дон Бёрджесс
Композитор: Марк Айшем
Художник: Ричард Хувер, Дэннис Брэдфорд, Шэрон Дэвис, ...
Монтаж: Питер МакНалти, Кевин Ститт--В ролях: Харрисон Форд / Harrison Ford (Branch Rickey), Чэдвик Боузман / Chadwick Boseman (Jackie Robinson), Николь Бихери / Nicole Beharie (Rachel Robinson), Кристофер Мелони / Christopher Meloni (Leo Durocher), Райан Мерриман / Ryan Merriman (Dixie Walker), Лукас Блэк / Lucas Black (Pee Wee Reese), Андре Холлэнд / Andre Holland (Wendell Smith), Алан Тьюдик / Alan Tudyk (Ben Chapman)--Описание: Фильм посвящен тому, как Брэнч Рики и Джеки Робинсон уничтожили сегрегацию в бейсболе в 1947 году.--Бюджет: $40 000 000
Сборы в США: $94 595 294
Премьера (мир): 12 апреля 2013, ...
Релиз на DVD: 22 августа 2013, «CP Дистрибуция», ...
Релиз на Blu-Ray: 22 августа 2013, «CP Дистрибуция», ...
Рейтинг MPAA: Детям до 13 лет просмотр не желателен--Качество: BDRip
Формат: AVI
Видео кодек: XviD
Аудио кодеk: AC3
Видео: 720x304 (2.35:1), 23.976 fps, XviD, 1 976 Kbps
Аудио: AC3, 448 Kbps, 48.0 KHz, 2 ch

МедиаИнфо

General
Complete name : 42.2013.BDRip.ELmusic.avi
Format : AVI
Format/Info : Audio Video Interleave
Format profile : OpenDML
File size : 2.18 GiB
Duration : 2h 8mn
Overall bit rate : 2 436 Kbps
Writing application : VirtualDubMod 1.5.10.2 (build 2540/release)
Writing library : VirtualDubMod build 2540/release
Video
ID : 0
Format : MPEG-4 Visual
Format profile : Advanced [email protected]
Format settings, BVOP : Yes
Format settings, QPel : No
Format settings, GMC : No warppoints
Format settings, Matrix : Custom
Codec ID : XVID
Codec ID/Hint : XviD
Duration : 2h 8mn
Bit rate : 1 976 Kbps
Width : 720 pixels
Height : 304 pixels
Display aspect ratio : 2.35:1
Frame rate : 23.976 fps
Color space : YUV
Chroma subsampling : 4:2:0
Bit depth : 8 bits
Scan type : Progressive
Bits/(Pixel*Frame) : 0.377
Stream size : 1.77 GiB (81%)
Writing library : XviD 73
Audio
ID : 1
Format : AC-3
Format/Info : Audio Coding 3
Mode extension : CM (complete main)
Codec ID : 2000
Duration : 2h 8mn
Bit rate mode : Constant
Bit rate : 448 Kbps
Channel(s) : 2 channels
Channel positions : Front: L R
Sampling rate : 48.0 KHz
Bit depth : 16 bits
Video delay : 1s 500ms
Stream size : 411 MiB (18%)
Alignment : Split accross interleaves
Interleave, duration : 42 ms (1.00 video frame)
Interleave, preload duration : 500 ms

Скриншоты

Создавать темы 05-Июл-2013 20:19

[Профиль]  [ЛС] 

Sinatro

Стаж: 5 лет 8 месяцев

Сообщений: 117

Симпатии: 2

А что такое сегрегация?

Создавать темы 05-Июл-2013 20:25

[Профиль]  [ЛС] 

ibragimof

Стаж: 6 лет 5 месяцев

Сообщений: 253

Симпатии: 48

Sinatro,

а что такое гугл?

Сегрега́ция (позднелат. segregatio — отделение) — политика принудительного отделения какой-либо группы населения. Обычно упоминается как одна из форм религиозной и расовой дискриминации (отделение группы по расовому или этническому признаку). Различается сегрегация де-юре и де-факто. Сегрегация де-юре, или административная сегрегация, была очень распространена в Средние века и Новое время в германских и англосаксонских странах, а также их колониях (Германия, США, Британская империя, ЮАР, Ирландия, Прибалтика и т. д.), но практически исчезла после успехов, достигнутых движением за права человека во второй половине XX века и ныне встречается крайне редко. Однако в большинстве стран, где некогда существовала административная сегрегация, она до сих пор поддерживается де-факто по расовым, языковым, национальным, религиозным признакам и не только на бытовом уровне, приобретая новые, более изощрённые формы (практика красной черты). Так, в США до сих пор успешно поддерживается система сегрегации учебных заведений (см. Исторические чёрные высшие учебные заведения), спальных районов, торговых центров, различных учреждений и т. д. Возникают новые феномены: гиперсегрегация, ресегрегация и пр.

Создавать темы 05-Июл-2013 20:37

[Профиль]  [ЛС] 

air6797

Стаж: 4 года 10 месяцев

Сообщений: 114

Симпатии: 1

У русских №17 а у Америкосах №42! Кто спёр идею ???
P.S ===>>> http://tas-ix.net/viewtopic.php?t=71447 cb bm bm

Создавать темы 20-Июл-2013 20:10

[Профиль]  [ЛС] 

aXisss

Стаж: 6 лет 7 месяцев

Сообщений: 9

А что такое сегрегация?
принудительное разделение по какому-либо признаку. яркий пример: постройки гетто и резерваций...

Создавать темы 30-Июл-2013 22:41

[Профиль]  [ЛС] 

kraft2307

Стаж: 4 года 4 месяца

Сообщений: 29

У русских №17 а у Америкосах №42! Кто спёр идею ???
P.S ===>>> http://tas-ix.net/viewtopic.php?t=71447 cb bm bm
При чем тут Харламов? Он разве уничтожил расовую сегрегацию в советском хоккее?

Создавать темы 31-Июл-2013 16:04

[Профиль]  [ЛС] 

vertu

Стаж: 4 года 7 месяцев

Сообщений: 5

Кому такие фильмы интересны?

Создавать темы 01-Авг-2013 13:27

[Профиль]  [ЛС] 

soxa

Стаж: 4 года 11 месяцев

Сообщений: 155

Симпатии: 21

Кому такие фильмы интересны?
Мне

Создавать темы 03-Авг-2013 15:32

[Профиль]  [ЛС] 

taziev

Стаж: 4 года 11 месяцев

Сообщений: 41

Симпатии: 1

фильм хороший! стоит посмотреть...тем более основан на реальной истории

Создавать темы 03-Авг-2013 17:24

[Профиль]  [ЛС] 
Показать сообщения:    
Ответить на тему

Текущее время: 21-Сен 22:43

Часовой пояс: UTC + 5



Вы не можете начинать темы
Вы не можете отвечать на сообщения
Вы не можете редактировать свои сообщения
Вы не можете удалять свои сообщения
Вы не можете голосовать в опросах
Вы не можете прикреплять файлы к сообщениям
Вы не можете скачивать файлы