Что бы вы сделали... / Would You Rather (Дэвид Гай Леви / David Guy Levy) [2012, США, ужасы, триллер, HDRip] VO [den904]

Ответить на тему
 

Suxrob89 ®

Стаж: 7 лет

Сообщений: 933

Симпатии: 564

Что бы вы сделали... / Would You Rather-«Скажите себе, что это - просто игра.»
«Tell yourself it's just a game.»
- Страна: США
Жанр: ужасы, триллер
Год выпуска: 2012
Продолжительность: 01:33:20
Перевод: Одноголосый закадровый [den904]
Cубтитры: нет-Режиссер: Дэвид Гай Леви / David Guy Levy-В ролях: Бриттани Сноу, Джеффри Комбс, Джонатан Койн, Ларри Джиллиард мл., Энвер Гьокай, Саша Грэй, Джон Хёрд, Чарли Хофхаймер, Логан Миллер, Джун Скуиб-Описание: История о том, как званый обед превращается в садистскую игру, участники которой сталкиваются со смертельными обстоятельствами.- -Качество видео: HDRip
Формат видео: AVI
Видео кодек: XviD
Аудио кодек: AC3
Видео:720x304 (2.37:1), 23.976 fps, XviD MPEG-4 ~2042 kbps avg, 0.39 bit/pixel
Аудио: 48 kHz, AC3 Dolby Digital, 2/0 (L,R) ch, ~192 kbps-

MediaInfo

F:\Would You Rather.avi
General
Complete name : F:\Would You Rather.avi
Format : AVI
Format/Info : Audio Video Interleave
File size : 1.46 GiB
Duration : 1h 33mn
Overall bit rate : 2 244 Kbps
Writing application : VirtualDubMod 1.5.10.3 | www.virtualdub-fr.org || (build 2550/release)
Writing library : VirtualDubMod build 2550/release
Video #0
ID : 0
Format : MPEG-4 Visual
Format profile : Advanced [email protected]
Format settings, BVOP : 2
Format settings, QPel : No
Format settings, GMC : No warppoints
Format settings, Matrix : Custom
Codec ID : XVID
Codec ID/Hint : XviD
Duration : 1h 33mn
Bit rate : 2 042 Kbps
Width : 720 pixels
Height : 304 pixels
Display aspect ratio : 2.35:1
Frame rate : 23.976 fps
Color space : YUV
Chroma subsampling : 4:2:0
Bit depth : 8 bits
Scan type : Progressive
Compression mode : Lossy
Bits/(Pixel*Frame) : 0.389
Stream size : 1.33 GiB (91%)
Writing library : XviD 64
Audio #1
ID : 1
Format : AC-3
Format/Info : Audio Coding 3
Mode extension : CM (complete main)
Format settings, Endianness : Big
Codec ID : 2000
Duration : 1h 33mn
Bit rate mode : Constant
Bit rate : 192 Kbps
Channel(s) : 2 channels
Channel positions : Front: L R
Sampling rate : 48.0 KHz
Bit depth : 16 bits
Compression mode : Lossy
Stream size : 128 MiB (9%)
Alignment : Split accross interleaves
Interleave, duration : 42 ms (1.00 video frame)
Interleave, preload duration : 500 ms

Скриншот c названием фильма

Скриншоты

Создавать темы 06-Июл-2013 08:06

[Профиль]  [ЛС] 

DeFenDer007

Стаж: 4 года 1 месяц

Сообщений: 191

Симпатии: 9

как филм ? норм ?

_________________
Подпись отключена за нарушение правил форума

Создавать темы 13-Июл-2013 08:42

[Профиль]  [ЛС] 

Bombox

Стаж: 4 года 11 месяцев

Сообщений: 17

Симпатии: 3

Добрые, почему у меня скорость слишком низкая? Интернет нормальный

Создавать темы 15-Июл-2013 09:57

[Профиль]  [ЛС] 
Показать сообщения:    
Ответить на тему

Текущее время: 23-Авг 03:42

Часовой пояс: UTC + 5



Вы не можете начинать темы
Вы не можете отвечать на сообщения
Вы не можете редактировать свои сообщения
Вы не можете удалять свои сообщения
Вы не можете голосовать в опросах
Вы не можете прикреплять файлы к сообщениям
Вы не можете скачивать файлы