Ты, мой дом / Evim Sensin (Озджан Дениз / Ozcan Deniz) [2012, Турция, драма, DVDRip] Sub Rus

Страницы :  1, 2, 3  След.

Ответить на тему
 

Sh0cky ®

Стаж: 5 лет

Сообщений: 74

Симпатии: 14

Ты, мой дом / Evim Sensin
Год выпуска: 2012
Страна: Турция
Жанр: драма
Продолжительность: 01:40:18
Перевод: Субтитры (перевод на русский Анастасия Горбанёва и Анна Адамова)
Оригинальная аудиодорожка: турецкая
Режиссер: Озджан Дениз / Ozcan Deniz
В ролях: Озджан Дениз / Özcan Deniz (Iskender), Fahriye Evcen / Фахрие Эвджен (Leyla), Гизем Денизджи / Gizem Denizci (Defne) и др.
Описание: Она - вернулась в отчий дом, после того, как закончился ее роман с женатым мужчиной. Ее сердце разбито. С отцом у нее с детства были сложные отношения. Она пытается наладить свою жизнь и решить насущные проблемы.
Он - вырос в детском доме. Его жизнь была тяжелой и лишенной радостных моментов.
Но однажды – они встретились. И внезапное увлечение переросло в глубокое чувство любви, такое нежданное и новое для них обоих.
Это красивая история любви Лейлы и Искандера. История, в которой половинки двух разбитых сердец соединились и стали биться в унисон. Когда настоящая любовь наполняет жизнь смыслом, сердце оживает, и прошлое уже не имеет значения – важно только то, что в нем живет любовь…
Качество: DVDRip
Формат: AVI
Видео кодек: XviD
Аудио кодек: MP3
Видео: 672x384 (1.75:1), 25 fps, XviD MPEG-4 ~849 kbps avg, 0.13 bit/pixel
Аудио: 48 kHz, MPEG Layer 3, 2 ch, ~128.00 kbps avg
Формат субтитров: hardsub (неотключаемые)

MediaInfo

Формат : AVI
Формат/Информация : Audio Video Interleave
Размер файла : 711 Мбайт
Продолжительность : 1 ч. 40 м.
Общий поток : 991 Кбит/сек
Программа кодирования : Lavf52.39.1
Видео
Идентификатор : 0
Формат : xvid
Идентификатор кодека : xvid
Продолжительность : 1 ч. 40 м.
Битрейт : 850 Кбит/сек
Ширина : 672 пикселя
Высота : 384 пикселя
Соотношение сторон : 16:9
Частота кадров : 25,000 кадров/сек
Бит/(Пиксели*Кадры) : 0.132
Размер потока : 610 Мбайт (86%)
Аудио
Идентификатор : 1
Формат : MPEG Audio
Версия формата : Version 1
Профиль формата : Layer 3
Режим : Joint stereo
Расширение режима : MS Stereo
Идентификатор кодека : 55
Идентификатор кодека/Подсказка : MP3
Продолжительность : 1 ч. 40 м.
Вид битрейта : Постоянный
Битрейт : 128 Кбит/сек
Каналы : 2 канала
Частота : 48,0 КГц
Метод сжатия : С потерями
Размер потока : 91,8 Мбайт (13%)
Выравнивание : Соединение по промежуткам
Продолжительность промежутка : 24 мс. (0,60 видеокадр)
Время предзагрузки промежутка : 24 мс.

Скриншоты







Последний раз редактировалось: Sh0cky (2013-07-06 21:22), всего редактировалось 2 раз(а)

Создавать темы 06-Июл-2013 18:20

[Профиль]  [ЛС] 

Sh0cky ®

Стаж: 5 лет

Сообщений: 74

Симпатии: 14

Перекачайте торрент файл.

Создавать темы 06-Июл-2013 20:06

[Профиль]  [ЛС] 

FRIEND

Стаж: 6 лет 7 месяцев

Сообщений: 120

Симпатии: 7

Что-то по описаниям напоминает корейский фильм "Памятный миг / A Moment to Remember" с Сон Е Чжин и Чон У Сон в главной роли. Может эта турецкая версия?

Создавать темы 06-Июл-2013 20:35

[Профиль]  [ЛС] 

Sh0cky ®

Стаж: 5 лет

Сообщений: 74

Симпатии: 14

FRIEND, может быть

Создавать темы 06-Июл-2013 21:20

[Профиль]  [ЛС] 

FRIEND

Стаж: 6 лет 7 месяцев

Сообщений: 120

Симпатии: 7

...напоминает корейский фильм. эта турецкая версия?
После просмотра уверен, эта турецкая версия и совсем не разочеровал. Озджан Дениз теперь и режиссер? Браво, не плохо! 9 из 10! Спасибо!

Создавать темы 17-Июл-2013 13:13

[Профиль]  [ЛС] 

@[email protected]

Стаж: 5 лет 5 месяцев

Сообщений: 8

дайте скорость пожалуйста

Создавать темы 29-Ноя-2013 21:57

[Профиль]  [ЛС] 

@[email protected]

Стаж: 5 лет 5 месяцев

Сообщений: 8

ППц нужен фильм пожалуйста дайте скорости афтор!

Создавать темы 29-Ноя-2013 22:03

[Профиль]  [ЛС] 

@[email protected]

Стаж: 5 лет 5 месяцев

Сообщений: 8

Sh0cky, скорости дай пожалуйста!!очень надо!!

Создавать темы 29-Ноя-2013 22:04

[Профиль]  [ЛС] 

@[email protected]

Стаж: 5 лет 5 месяцев

Сообщений: 8

Sh0cky, спасибо больше за скорость блогодарин вам!!очень!!!вы мои спосители

Создавать темы 29-Ноя-2013 22:17

[Профиль]  [ЛС] 

@[email protected]

Стаж: 5 лет 5 месяцев

Сообщений: 8

Sh0cky, плисс скрости пожалуйста

Создавать темы 29-Ноя-2013 22:51

[Профиль]  [ЛС] 

BendeR98

Стаж: 4 года 10 месяцев

Сообщений: 281

Симпатии: 10

fjfmkmfkfgfkfjdk,m,;ftjfkdmckefdkfc,dckdkfcmdjdmcdjdfkcjdcmfjfjdcjmdcfmngmkjfm vfjdvbvnfnc cnfnvncm myfjd

Создавать темы 30-Ноя-2013 16:48

[Профиль]  [ЛС] 

_lyudochka_

Стаж: 5 лет

Сообщений: 5

Фильм потрясающий! Спасибо большое!

Создавать темы 01-Дек-2013 23:53

[Профиль]  [ЛС] 

qwerty666

Стаж: 5 лет 8 месяцев

Сообщений: 10

дайте скорость пожалуйста

Создавать темы 04-Дек-2013 19:15

[Профиль]  [ЛС] 

ziyoda

Стаж: 3 года 7 месяцев

Сообщений: 5

дайте скорость

Создавать темы 02-Фев-2014 23:20

[Профиль]  [ЛС] 

MINUR

Стаж: 4 года 2 месяца

Сообщений: 18

Симпатии: 1

SKOROSTI

Создавать темы 03-Фев-2014 13:10

[Профиль]  [ЛС] 
Показать сообщения:    
Ответить на тему

Текущее время: 20-Сен 16:16

Часовой пояс: UTC + 5



Вы не можете начинать темы
Вы не можете отвечать на сообщения
Вы не можете редактировать свои сообщения
Вы не можете удалять свои сообщения
Вы не можете голосовать в опросах
Вы не можете прикреплять файлы к сообщениям
Вы не можете скачивать файлы