Джон Картер / John Carter (Эндрю Стэнтон) [2012 г., фантастика, фэнтези, боевик, приключения, BDRip 720p]

Ответить на тему
 

GIGABYTE158 ®

Стаж: 5 лет 3 месяца

Сообщений: 71

Симпатии: 13

--Джон Картер / John Carter-- Год выпуска: 2012
Страна: США
слоган: «В этом мире у каждого есть второй шанс»
Жанр: фантастика, фэнтези, боевик, приключения
бюджет: $250 000 000
сборы в США: $73 078 100
сборы в мире: + $210 400 000 = $283 478 100
Продолжительность: 02:12:01
Перевод: Профессиональный (полное дублирование)--Режиссер: Эндрю Стэнтон
продюсер:Линдси Коллинз, Джим Моррис, Колин Уилсон, ...
сценарий: Эндрю Стэнтон, Марк Эндрюс, Майкл Чабон
монтаж: Эрик Замбраннен
художник: Нэйтан Краули, Дэвид Оллдей, Джеймс Хэмбридж, ...
композитор: Майкл Джаккино
оператор: Дэниэл Миндел--В ролях: Тейлор Китч, Линн Коллинс, Марк Стронг, Доминик Уэст, Джеймс Пьюрфой, Брайан Крэнстон, Дэрил Сабара, Аманда Клэйтон, Киаран Хайндс, Николас Вудесон--Описание: Ветеран Гражданской войны в США Джон Картер против своей воли оказывается на Марсе, где попадает в плен к воинственным четырехметровым туземцам.
Картеру предстоит не только спастись самому, но и спасти принцессу Дею Торис из Гелиума.--Качество: BDRip 720p
Формат: MKV
Видео кодек: Другой MPEG4
Аудио кодек: AC3
Видео: 1280x534, 5 500 kbps, 23 976 fps
Аудио 1: Russian 640kbps, 6 channels, 48.0 khz
Аудио 2: Ukrainian 640kbps, 6 channels, 48.0 khz
Аудио 3: English 640kbps, 6 channels, 48.0 khz--Трейлер--

MI

E:\фантастика\Dzhon.Karter.2012.x264.BDRip.720p.mkv
General
Unique ID : 205915221491470521155273318547076812025 (0x9AE9D440648AF462B676A51B78360CF9)
Complete name : E:\фантастика\Dzhon.Karter.2012.x264.BDRip.720p.mkv
Format : Matroska
Format version : Version 2
File size : 7.65 GiB
Duration : 2h 12mn
Overall bit rate : 8 291 Kbps
Movie name : John Carter
Encoded date : UTC 2012-05-25 05:51:46
Writing application : mkvmerge v5.2.1 ('A Far Off Place') built on Jan 7 2012 21:56:27
Writing library : libebml v1.2.3 + libmatroska v1.3.0
Video #1
ID : 1
Format : AVC
Format/Info : Advanced Video Codec
Format profile : [email protected]
Format settings, CABAC : Yes
Format settings, ReFrames : 12 frames
Codec ID : V_MPEG4/ISO/AVC
Duration : 2h 12mn
Bit rate : 5 500 Kbps
Width : 1 280 pixels
Height : 534 pixels
Display aspect ratio : 2.40:1
Frame rate : 23.976 fps
Color space : YUV
Chroma subsampling : 4:2:0
Bit depth : 8 bits
Scan type : Progressive
Bits/(Pixel*Frame) : 0.336
Stream size : 4.92 GiB (64%)
Title : HDChina
Writing library : x264 core 124 r2197 69a0443
Encoding settings : cabac=1 / ref=12 / deblock=1:-3:-3 / analyse=0x3:0x113 / me=umh / subme=10 / psy=1 / psy_rd=1.10:0.00 / mixed_ref=1 / me_range=32 / chroma_me=1 / trellis=2 / 8x8dct=1 / cqm=0 / deadzone=21,11 / fast_pskip=0 / chroma_qp_offset=-2 / threads=18 / sliced_threads=0 / nr=0 / decimate=0 / interlaced=0 / bluray_compat=0 / constrained_intra=0 / bframes=8 / b_pyramid=2 / b_adapt=2 / b_bias=0 / direct=3 / weightb=1 / open_gop=0 / weightp=2 / keyint=240 / keyint_min=24 / scenecut=40 / intra_refresh=0 / rc_lookahead=240 / rc=2pass / mbtree=1 / bitrate=5500 / ratetol=1.0 / qcomp=0.70 / qpmin=0 / qpmax=69 / qpstep=4 / cplxblur=20.0 / qblur=0.5 / ip_ratio=1.40 / aq=1:0.90
Language : English
Default : Yes
Forced : No
Audio #2
ID : 2
Format : AC-3
Format/Info : Audio Coding 3
Mode extension : CM (complete main)
Codec ID : A_AC3
Duration : 2h 12mn
Bit rate mode : Constant
Bit rate : 640 Kbps
Channel(s) : 6 channels
Channel positions : Front: L C R, Side: L R, LFE
Sampling rate : 48.0 KHz
Bit depth : 16 bits
Compression mode : Lossy
Stream size : 604 MiB (8%)
Title : Russian [Dolby AC3 5.1]
Language : Russian
Default : Yes
Forced : No
Audio #3
ID : 3
Format : AC-3
Format/Info : Audio Coding 3
Mode extension : CM (complete main)
Codec ID : A_AC3
Duration : 2h 12mn
Bit rate mode : Constant
Bit rate : 640 Kbps
Channel(s) : 6 channels
Channel positions : Front: L C R, Side: L R, LFE
Sampling rate : 48.0 KHz
Bit depth : 16 bits
Compression mode : Lossy
Stream size : 604 MiB (8%)
Title : Ukrainian [Dolby AC3 5.1]
Language : Ukrainian
Default : No
Forced : No
Audio #4
ID : 4
Format : DTS
Format/Info : Digital Theater Systems
Codec ID : A_DTS
Duration : 2h 12mn
Bit rate mode : Constant
Bit rate : 1 510 Kbps
Channel(s) : 6 channels
Channel positions : Front: L C R, Side: L R, LFE
Sampling rate : 48.0 KHz
Bit depth : 24 bits
Compression mode : Lossy
Stream size : 1.39 GiB (18%)
Title : Original [DTS 5.1]
Language : English
Default : No
Forced : No
Text #5
ID : 5
Format : UTF-8
Codec ID : S_TEXT/UTF8
Codec ID/Info : UTF-8 Plain Text
Title : Russian
Language : Russian
Default : No
Forced : No
Text #6
ID : 6
Format : UTF-8
Codec ID : S_TEXT/UTF8
Codec ID/Info : UTF-8 Plain Text
Title : Ukrainian
Language : Ukrainian
Default : No
Forced : No
Text #7
ID : 7
Format : UTF-8
Codec ID : S_TEXT/UTF8
Codec ID/Info : UTF-8 Plain Text
Title : English
Language : English
Default : No
Forced : No
Text #8
ID : 8
Format : UTF-8
Codec ID : S_TEXT/UTF8
Codec ID/Info : UTF-8 Plain Text
Title : Russian (marsian)
Language : Russian
Default : Yes
Forced : Yes
Text #9
ID : 9
Format : UTF-8
Codec ID : S_TEXT/UTF8
Codec ID/Info : UTF-8 Plain Text
Title : Ukrainian (marsian)
Language : Ukrainian
Default : No
Forced : No
Text #10
ID : 10
Format : UTF-8
Codec ID : S_TEXT/UTF8
Codec ID/Info : UTF-8 Plain Text
Title : English (marsian)
Language : English
Default : No
Forced : No

Скриншоты

съёмки

Знаете ли вы, что...

Фильм снят по мотивам романа Эдгара Райса Берроуза «Принцесса Марса» (A Princess of Mars, 1911).--В 2006 году, по слухам, Роберт Земекис мог поставить фильм, сделав его по технологии «Беовульфа» (2007) и «Полярного экспресса» (2004).--Однако в то же самое время на Paramount активно шла разработка еще одного высокобюджетного фантастического проекта — перезапуска «Звездного пути». В итоге, студия отдала предпочтение фильму Джей Джей Абрамса, в очередной раз положив «Джона Картера с Марса» на полку. Несмотря на отмену проекта, Джон Фавро и Paramount остались в хороших отношениях: именно Фавро доверили экранизацию «Железного человека» (2008), одним из сценаристов которого стал Марк Фергус.

Создавать темы 07-Июл-2013 01:55

[Профиль]  [ЛС] 

tanuki

Стаж: 3 года 11 месяцев

Сообщений: 60

Симпатии: 3

Полная версия будет? А то сид пропал, доступно только 98.5 %

Создавать темы 05-Ноя-2013 22:08

[Профиль]  [ЛС] 
Показать сообщения:    
Ответить на тему

Текущее время: 26-Сен 10:41

Часовой пояс: UTC + 5



Вы не можете начинать темы
Вы не можете отвечать на сообщения
Вы не можете редактировать свои сообщения
Вы не можете удалять свои сообщения
Вы не можете голосовать в опросах
Вы не можете прикреплять файлы к сообщениям
Вы не можете скачивать файлы