Гостья / The Host (Эндрю Никкол) [2013 г., фантастика, драма, мелодрама, BDRip-AVC][Лицензия]

Ответить на тему
 

ZeroX ®

Стаж: 5 лет 7 месяцев

Сообщений: 146

Симпатии: 3

Гостья / The Host
«You will be one of us»
-
Год выпуска: 2013
Страна: США
Режиссер: Эндрю Никкол
Жанр: фантастика, драма, мелодрама
Продолжительность: 2:05:38
Перевод: Профессиональный (полное дублирование) [Лицензия]
Субтитры: Присутствуют (Вшитые, отключаемые) (Английские)-В ролях: Сирша Ронан, Макс Айронс, Джейк Эйбел, Дайан Крюгер, Уильям Хёрт, Чандлер Кентербери, Фрэнсис Фишер, Скотт Лоуренс, Бойд Холбрук, Мустафа Харрис-Описание: Земля — в опасности! Наше место скоро займут Души — лишенные плотской оболочки пришельцы, вытесняющие из человеческих тел разум и замещающие его разумом собственным. Большая часть человечества уже погибла. Немногие выжившие скрываются в жалкой попытке отсрочить неизбежное… Теперь Душа пытается захватить тело юной Мелани. Однако происходит неожиданное: Мелани и ее Душа вынуждены сосуществовать в одном теле. Гостье надлежало выследить и выдать землян-повстанцев, с которыми связана Мелани, но она помогает своей носительнице.-Качество: BDRip-AVC
Формат: MKV
Видео кодек: x264
Аудио кодек: AC3
Видео: AVC, 1056x440 (2.40:1), 23.976 fps, 1592 Kbps
Аудио #1: AC3 Dolby Digital, 48000Hz, 448 Kbps, 6 ch | Профессиональный (Полное Дублирование)[Лицензия]
Аудио #2: AC3 Dolby Digital, 48000Hz, 448 Kbps, 6 ch | Оригинал-Доп. Инфо: Фильм скачан и зарелизен по просьбе Grock

M.I.

Format                                   : Matroska
Format version                           : Version 4 / Version 2
File size                                : 2.18 GiB
Duration                                 : 2h 5mn
Overall bit rate                         : 2 489 Kbps
Movie name                               : -=POTROKS=-
Encoded date                             : UTC 2013-06-29 16:36:16
Writing application                      : mkvmerge v5.9.0 ('On The Loose') built on Dec 15 2012 16:39:58
Writing library                          : libebml v1.3.0 + libmatroska v1.4.0
Video
ID                                       : 1
Format                                   : AVC
Format/Info                              : Advanced Video Codec
Format profile                           : [email protected]
Format settings, CABAC                   : Yes
Format settings, ReFrames                : 10 frames
Codec ID                                 : V_MPEG4/ISO/AVC
Duration                                 : 2h 5mn
Bit rate                                 : 1 592 Kbps
Width                                    : 1 056 pixels
Height                                   : 440 pixels
Display aspect ratio                     : 2.40:1
Frame rate mode                          : Constant
Frame rate                               : 23.976 fps
Color space                              : YUV
Chroma subsampling                       : 4:2:0
Bit depth                                : 8 bits
Scan type                                : Progressive
Bits/(Pixel*Frame)                       : 0.143
Stream size                              : 1.35 GiB (62%)
Title                                    : The Host
Writing library                          : x264 core 125 r2208 d9d2288
Encoding settings                        : cabac=1 / ref=10 / deblock=1:-2:-1 / analyse=0x3:0x133 / me=umh / subme=11 / psy=1 / psy_rd=1.11:0.05 / mixed_ref=1 / me_range=32 / chroma_me=1 / trellis=2 / 8x8dct=1 / cqm=0 / deadzone=21,11 / fast_pskip=0 / chroma_qp_offset=-3 / threads=9 / lookahead_threads=1 / sliced_threads=0 / nr=0 / decimate=1 / interlaced=0 / bluray_compat=0 / constrained_intra=0 / bframes=11 / b_pyramid=2 / b_adapt=2 / b_bias=0 / direct=3 / weightb=1 / open_gop=0 / weightp=2 / keyint=240 / keyint_min=23 / scenecut=40 / intra_refresh=0 / rc_lookahead=150 / rc=2pass / mbtree=1 / bitrate=1592 / ratetol=1.0 / qcomp=0.70 / qpmin=0 / qpmax=69 / qpstep=4 / cplxblur=20.0 / qblur=0.5 / vbv_maxrate=20000 / vbv_bufsize=20000 / nal_hrd=none / ip_ratio=1.35 / aq=1:0.70
Language                                 : English
Default                                  : Yes
Forced                                   : No
Audio #1
ID                                       : 2
Format                                   : AC-3
Format/Info                              : Audio Coding 3
Mode extension                           : CM (complete main)
Format settings, Endianness              : Big
Codec ID                                 : A_AC3
Duration                                 : 2h 5mn
Bit rate mode                            : Constant
Bit rate                                 : 448 Kbps
Channel(s)                               : 6 channels
Channel positions                        : Front: L C R, Side: L R, LFE
Sampling rate                            : 48.0 KHz
Bit depth                                : 16 bits
Compression mode                         : Lossy
Stream size                              : 403 MiB (18%)
Title                                    : Dub | DD 5.1 @ 448 kbps
Language                                 : Russian
Default                                  : Yes
Forced                                   : Yes
Audio #2
ID                                       : 3
Format                                   : AC-3
Format/Info                              : Audio Coding 3
Mode extension                           : CM (complete main)
Format settings, Endianness              : Big
Codec ID                                 : A_AC3
Duration                                 : 2h 5mn
Bit rate mode                            : Constant
Bit rate                                 : 448 Kbps
Channel(s)                               : 6 channels
Channel positions                        : Front: L C R, Side: L R, LFE
Sampling rate                            : 48.0 KHz
Bit depth                                : 16 bits
Compression mode                         : Lossy
Stream size                              : 403 MiB (18%)
Title                                    : Original | DD 5.1 @ 448 kbps
Language                                 : English
Default                                  : No
Forced                                   : No
Text
ID                                       : 4
Format                                   : UTF-8
Codec ID                                 : S_TEXT/UTF8
Codec ID/Info                            : UTF-8 Plain Text
Language                                 : English
Default                                  : No
Forced                                   : No

Скриншоты







Скринлист



Последний раз редактировалось: ZeroX (2013-07-09 20:53), всего редактировалось 1 раз

Создавать темы 09-Июл-2013 20:27

[Профиль]  [ЛС] 

Иви

Стаж: 5 лет 9 месяцев

Сообщений: 688

Симпатии: 65

слегка подправил

Создавать темы 09-Июл-2013 20:53

[Профиль]  [ЛС] 

ZeroX ®

Стаж: 5 лет 7 месяцев

Сообщений: 146

Симпатии: 3

Хотите новых релизов? Оставайтесь на раздаче и раздавайте нормально, сейчас хотел новый фильм зарелизить а на этой раздаче раздающих нет. Скачали, сразу убежали с раздачи а релизер отдувайся как хочешь.

Создавать темы 11-Июл-2013 18:07

[Профиль]  [ЛС] 

Powered by GMC

Стаж: 2 года

Сообщений: 202

Симпатии: 31

Если хотите ночью оставлю комп включенным!

Создавать темы 27-Янв-2017 21:14

[Профиль]  [ЛС] 
Показать сообщения:    
Ответить на тему

Текущее время: 20-Окт 21:22

Часовой пояс: UTC + 5



Вы не можете начинать темы
Вы не можете отвечать на сообщения
Вы не можете редактировать свои сообщения
Вы не можете удалять свои сообщения
Вы не можете голосовать в опросах
Вы не можете прикреплять файлы к сообщениям
Вы не можете скачивать файлы