Барака / Baraka (Рон Фрике) [1992 г., Документальный, BDRip-AVC]

Ответить на тему
 

adham_boy ®

Стаж: 6 лет 11 месяцев

Сообщений: 122

Симпатии: 9

Барака / Baraka
«A world beyond words.»-- Год выпуска: 1992
Жанр: Документальный
Продолжительность: 01:37:48
Перевод: Не требуется
Режиссер: Рон Фрике
Описание: Описать Бараку сложно. Культовый фильм. Шедевр невербального воздействия на бессознательное. Мир за гранью слов, нечто с захватывающим визуальным рядом и фантастическим звуковым оформлением. Это документалка о природе, планете Земля и о нас с вами. Это непрерывный видеоряд, в который вошли потрясающие кадры красивейших мест Земли, необычные ритуальные обряды различных племен, съемки жизни в городе и многое другое. Съемки Бараки проводились в 24 странах мира на протяжении нескольких лет. И все это под соответствующее звуковое оформление, которое еще больше привязывает к экрану. Барака действительно стоит того, чтобы ее посмотрели. Хотя бы раз.
Качество: BDRip-AVC
Формат: MKV
Видео кодек: H.26x
Аудио кодек: DTS
Видео: Bit rate: 7 444 Kbps Width: 1 920 pixels Height: 876 pixels
Аудио: Bit rate: 1 510 Kbps Channel(s): 6 channels Sampling rate: 48.0 KHz--

ссылка на Самсара

http://tas-ix.net/viewtopic.php?t=73636

Медиа инфо

:D:\MEGAMEDIA\VIDEO\DOKUMENTAL\Baraka_1992_BDRip_1080p.x264.mkv.mkv
General
Complete name : D:\MEGAMEDIA\VIDEO\DOKUMENTAL\Baraka_1992_BDRip_1080p.x264.mkv.mkv
Format : Matroska
File size : 6.24 GiB
Duration : 1h 37mn
Overall bit rate : 9 135 Kbps
Encoded date : UTC 2008-11-11 06:55:49
Writing application : mkvmerge v2.3.0 ('Freak U') built on Sep 8 2008 18:32:16
Writing library : libebml v0.7.7 + libmatroska v0.8.1
Video #1
ID : 1
Format : AVC
Format/Info : Advanced Video Codec
Format profile : [email protected]
Format settings, CABAC : Yes
Format settings, ReFrames : 4 frames
Muxing mode : Container [email protected]
Codec ID : V_MPEG4/ISO/AVC
Duration : 1h 37mn
Bit rate : 7 444 Kbps
Width : 1 920 pixels
Height : 876 pixels
Display aspect ratio : 2.2:1
Frame rate : 23.976 fps
Resolution : 24 bits
Colorimetry : 4:2:0
Scan type : Progressive
Bits/(Pixel*Frame) : 0.185
Stream size : 5.08 GiB (81%)
Title : x264 - crf encode
Writing library : x264 core 65 r1016M dbc5ef0
Encoding settings : cabac=1 / ref=4 / deblock=1:-3:-3 / analyse=0x3:0x113 / me=umh / subme=9 / psy_rd=1.2:0.2 / mixed_ref=1 / me_range=16 / chroma_me=1 / trellis=2 / 8x8dct=1 / cqm=0 / deadzone=21,11 / chroma_qp_offset=-3 / threads=6 / nr=0 / decimate=0 / mbaff=0 / bframes=5 / b_pyramid=1 / b_adapt=2 / b_bias=0 / direct=3 / wpredb=1 / keyint=250 / keyint_min=25 / scenecut=40(pre) / rc=crf / crf=21.0 / qcomp=0.60 / qpmin=10 / qpmax=51 / qpstep=4 / vbv_maxrate=38000 / vbv_bufsize=30000 / ip_ratio=1.40 / pb_ratio=1.30 / aq=1:1.00
Language : English
Audio #2
ID : 2
Format : DTS
Format/Info : Digital Theater Systems
Codec ID : A_DTS
Duration : 1h 37mn
Bit rate mode : Constant
Bit rate : 1 510 Kbps
Channel(s) : 6 channels
Channel positions : Front: L C R, Surround: L R, LFE
Sampling rate : 48.0 KHz
Resolution : 24 bits
Stream size : 1.03 GiB (17%)
Title : DTS - 1536 kbit/sec
Language : English
Text #3
ID : 3
Format : UTF-8
Codec ID : S_TEXT/UTF8
Codec ID/Info : UTF-8 Plain Text
Language : English

Знаете ли вы, что...

: * Рон Фрике и Марк Мэджинсон вместе с командой из трех человек в течение 14 месяцев побывали в 24 странах, где и сняли этот удивительный фильм.
* Этот фильм снят супер-дорогой на тот момент широкоформатной камерой TODD-AO 70mm, для которой Рон Фрике создал специальную компьютерную систему, позволяющую снимать удивительные, растянутые по времени кадры.
*Барака - это старинное персидское слово, которое означает «благодеяние», «блаженство».

Скриншоты








Последний раз редактировалось: adham_boy (2013-07-10 00:31), всего редактировалось 3 раз(а)

Создавать темы 09-Июл-2013 23:27

[Профиль]  [ЛС] 

adham_boy ®

Стаж: 6 лет 11 месяцев

Сообщений: 122

Симпатии: 9

раздача завтра

Создавать темы 09-Июл-2013 23:29

[Профиль]  [ЛС] 

baxa_1818

Стаж: 5 лет 4 месяца

Сообщений: 62

Симпатии: 3

спасибо автору. Самсара тоже отличный док. фильм.

Создавать темы 10-Июл-2013 00:08

[Профиль]  [ЛС] 

actek

Стаж: 4 года 4 месяца

Сообщений: 15

adham_boy,
раздача завтра
точнее можно?

Создавать темы 10-Июл-2013 00:59

[Профиль]  [ЛС] 

es63

Стаж: 6 лет 5 месяцев

Сообщений: 17

Вроде раздающие есть, и даже не один, не пойму почему так медленно качается - 4-5Кб/с и так всю неделю.
Другие закачки идут нормально.

Создавать темы 03-Авг-2013 13:44

[Профиль]  [ЛС] 

Kickarez

Стаж: 5 лет 6 месяцев

Сообщений: 8

Симпатии: 1

спс , щас самсару докачаю и начну бараку))

Создавать темы 16-Авг-2013 17:16

[Профиль]  [ЛС] 

temurid

Стаж: 5 лет 5 месяцев

Сообщений: 60

Симпатии: 1

на диск то можно записать???

Создавать темы 21-Ноя-2013 23:24

[Профиль]  [ЛС] 

[email protected]

Стаж: 3 года 7 месяцев

Сообщений: 5

Симпатии: 7

Polovinu skachal, a vtoraya polovina vot uje neskol'ko nedel' nikak ne kachaetsya. MOjno eto delo popravit'? Ochen' nujen etot film.

Создавать темы 11-Мар-2014 20:45

[Профиль]  [ЛС] 

artalt

Стаж: 3 года 9 месяцев

Сообщений: 9

Что такое со статистикой? 7 сидов и 6 их них я?

Создавать темы 04-Фев-2015 21:19

[Профиль]  [ЛС] 

aliyor-azizovich

Стаж: 3 года 10 месяцев

Сообщений: 17

Симпатии: 12

Ребят, чуточку осталось, помогите докачать, пожалуйста!

Создавать темы 10-Май-2015 21:31

[Профиль]  [ЛС] 
Показать сообщения:    
Ответить на тему

Текущее время: 19-Сен 23:55

Часовой пояс: UTC + 5



Вы не можете начинать темы
Вы не можете отвечать на сообщения
Вы не можете редактировать свои сообщения
Вы не можете удалять свои сообщения
Вы не можете голосовать в опросах
Вы не можете прикреплять файлы к сообщениям
Вы не можете скачивать файлы