Вампирская сага / True Bloodthirst (Тодор Чапканов) [2012 г., ужасы, фантастика, боевик, HDRip] MVO

Ответить на тему
 

igor1968 ®

Стаж: 5 лет 5 месяцев

Сообщений: 366

Симпатии: 197

Вампирская сага / True Bloodthirst Год выпуска: 2012
Страна:
Жанр: ужасы, фантастика, боевик
Продолжительность: 01:25:15.753
Перевод: Профессиональный (многоголосый, закадровый)
Режиссер: Тодор Чапканов
В ролях: Эндрю Ли Поттс
Хейда Рид
Клаудия Бассолс
Бен Ламберт
Нил Джексон
Роурк Критчлоу
Владо Мажанаов
Джонатан Харгривз
Илиана Лазарова
Атанас Сребрев
...
Бухарест, Румыния. Не слишком отдаленное будущее, но полностью другой город. Население сокращается. Население вампиров, тем временем, растет взрывными темпами. Появившись из теней десятилетием ранее, вампиры теперь живут не прячась среди людей, поскольку сомнительный мир существует между ними. Мир сделал возможным введение синтетического заменителя крови, созданного румынским правительством, делая традиционного вампира, питающегося, и охотящегося на людей, лучше остальных. Но даже в этом случае, это не мир, которым все полностью довольны… Премьера: 14 июля 2012, ... Релиз на DVD:22 января 2013, «Lizard Cinema Trade», ...   Качество: HDRip
Формат: AVI
Видео кодек: XviD
Аудио кодек: AC3
Видео: 720x400 (1.80:1), 24.000 fps, XviD build 50 ~2054 kbps avg, 0.30 bit/pixel
Аудио: 48 kHz, AC3 Dolby Digital, 3/2 (L,C,R,l,r) + LFE ch, ~384.00 kbps avg

MediaInfo

General
Complete name : Vampirskaja saga.2012.P.HDRip.avi
Format : AVI
Format/Info : Audio Video Interleave
File size : 1.46 GiB
Duration : 1h 25mn
Overall bit rate : 2 448 Kbps
Writing application : VirtualDubMod 1.5.10.3 | www.virtualdub-fr.org || (build 2550/release)
Writing library : VirtualDubMod build 2550/release
Video
ID : 0
Format : MPEG-4 Visual
Format profile : Advanced [email protected]
Format settings, BVOP : 1
Format settings, QPel : No
Format settings, GMC : No warppoints
Format settings, Matrix : Default (H.263)
Codec ID : XVID
Codec ID/Hint : XviD
Duration : 1h 25mn
Bit rate : 2 055 Kbps
Width : 720 pixels
Height : 400 pixels
Display aspect ratio : 16:9
Frame rate : 24.000 fps
Color space : YUV
Chroma subsampling : 4:2:0
Bit depth : 8 bits
Scan type : Progressive
Compression mode : Lossy
Bits/(Pixel*Frame) : 0.297
Stream size : 1.22 GiB (84%)
Writing library : XviD 1.2.1 (UTC 2008-12-04)
Audio
ID : 1
Format : AC-3
Format/Info : Audio Coding 3
Mode extension : CM (complete main)
Format settings, Endianness : Big
Codec ID : 2000
Duration : 1h 25mn
Bit rate mode : Constant
Bit rate : 384 Kbps
Channel(s) : 6 channels
Channel positions : Front: L C R, Side: L R, LFE
Sampling rate : 48.0 KHz
Bit depth : 16 bits
Compression mode : Lossy
Stream size : 234 MiB (16%)
Alignment : Split accross interleaves
Interleave, duration : 42 ms (1.00 video frame)
Interleave, preload duration : 500 ms

Скриншоты



Последний раз редактировалось: igor1968 (2013-07-10 17:45), всего редактировалось 1 раз

Создавать темы 10-Июл-2013 17:41

[Профиль]  [ЛС] 

СтАсИкОс

Стаж: 6 лет 7 месяцев

Сообщений: 314

Симпатии: 20

Подправил шапку, оформление понравилось!

Создавать темы 10-Июл-2013 17:46

[Профиль]  [ЛС] 

Sinatro

Стаж: 5 лет 7 месяцев

Сообщений: 117

Симпатии: 2

Такой низкий рейтинг о боже!

Создавать темы 10-Июл-2013 17:47

[Профиль]  [ЛС] 

бахрамжон

Стаж: 4 года

Сообщений: 2

дайте скорост

Создавать темы 13-Авг-2013 10:38

[Профиль]  [ЛС] 
Показать сообщения:    
Ответить на тему

Текущее время: 23-Авг 03:27

Часовой пояс: UTC + 5



Вы не можете начинать темы
Вы не можете отвечать на сообщения
Вы не можете редактировать свои сообщения
Вы не можете удалять свои сообщения
Вы не можете голосовать в опросах
Вы не можете прикреплять файлы к сообщениям
Вы не можете скачивать файлы