[#103]Лабиринт Фавна / El laberinto del fauno (Гильермо дель Торо) [2006 г., фэнтези, драма, военный, ..., BDRip]

Ответить на тему
 

Djoni111095 ®

Стаж: 5 лет 1 месяц

Сообщений: 57

Симпатии: 11

--Лабиринт Фавна / El laberinto del fauno-- Год выпуска: 2006
Страна: Испания, Мексика, США
Cлоган: «What happens when make-believe believes it's real?»
Жанр: фэнтези, драма, военный, ...
Продолжительность: 01:58:57
Перевод: Профессиональный (полное дублирование)-Режиссер: Гильермо дель Торо
Сценарий: Гильермо дель Торо
Продюсер: Альваро Аугустин, Альфонсо Куарон, Гильермо дель Торо, ...
Оператор: Гильермо Наварро
Композитор: Хавьер Наваррете
Художник: Эудженио Кабальеро, Лала Уэте, Пилар Ревуэлта
Монтаж: Бернат Вилаплана
Бюджет: $19 000 000
Сборы в Сша: $37 623 143
Сборы в мире: + $45 529 593 = $83 152 736
Сборы в России: $884 029
DVD в США: $35 951 853
Зрители: 5.31 млн, 1.65 млн , 384.6 тыс.,
Премьера (мир) : 27 мая 2006, ...
Премьера (РФ): 30 ноября 2006, «RUSCICO»
Релиз на DVD: 22 сентября 2009, «Флагман-Трейд», ...
Релиз на Blu-Ray: 8 марта 2012, «Новый Диск», ...
Возраст: +зрителям, достигшим 18 лет
Рейтинг MPAA: лицам до 17 лет обязательно присутствие взрослого-В ролях: Ивана Бакероб, Серхи Лопес, Марибель Верду, Даг Джонс, Ариадна Хиль, Алех Ангуло, Маноло Соло, Рожер Казамажор-Описание: Испания, 1944 год. Группа повстанцев сражается с фашистами в горных лесах северной Наварры. Офелия — 10-летняя одинокая и мечтательная девочка — переезжает со своей беременной матерью Кармен в военный лагерь отчима капитана Видаля. Видаль — высокомерный и жестокий офицер армии Франко, который должен очистить район от повстанцев любой ценой. Офелия, увлеченная волшебными сказками, обнаруживает старинный заброшенный лабиринт неподалеку от дома.
Фея проводит ее в центр лабиринта, где она встречает Фавна, хозяина подземелья. Фавн утверждает, что знает её истинную судьбу и её тайное предназначение. Оказывается Офелия — пропавшая принцесса волшебного королевства, которую многие века разыскивает ее отец. Фавн предлагает ей возможность вернуться в волшебное королевство. Но для начала она должна пройти три испытания до наступления полнолуния. Никто не должен узнать об этом.
Время на исходе — как для Офелии, так и для отряда повстанцев. Всем придется противостоять трудностям и жестокости на пути к свободе.- --Качество: BDRip [Рип с Blu-Ray 1080p]
Формат: AVI
Видео кодек: XviD
Аудио кодек: AC3
Видео: 720x384 (1.88:1), 23.976 fps, XviD build 50 ~1321 kbps avg, 0.20 bit/pixel
Аудио: 48 kHz, AC3 Dolby Digital, 3/2 (L,C,R,l,r) + LFE ch, ~448.00 kbps avg (rus)

Награды


Оскар, 2007 год
Победитель (3):
Лучшая работа оператора
Лучшие декорации
Лучший грим

Британская академия, 2007 год
Победитель (3):
Лучший фильм на иностранном языке
Лучшие костюмы
Лучший грим/прически

Гойя, 2007 год
Победитель (7):
Лучшая актриса-дюбютант (Ивана Бакеро)
Лучший оригинальный сценарий
Лучшая работа оператора
Лучший звук
Лучший монтаж
Лучшие спецэффекты
Лучший грим/причёски

Сатурн, 2007 год
Победитель (2):
Лучший молодой актер/актриса (Ивана Бакеро)
Лучший иностранный фильм

MediaInfo

General
Complete name : D:\Labirint.Favna.2006.D.BDRip.avi
Format : AVI
Format/Info : Audio Video Interleave
File size : 1.46 GiB
Duration : 1h 57mn
Overall bit rate : 1 779 Kbps
Writing application : VirtualDubMod 1.5.10.3 | www.virtualdub-fr.org || (build 2550/release)
Writing library : VirtualDubMod build 2550/release
Video
ID : 0
Format : MPEG-4 Visual
Format profile : Advanced [email protected]
Format settings, BVOP : 1
Format settings, QPel : No
Format settings, GMC : No warppoints
Format settings, Matrix : Custom
Codec ID : XVID
Codec ID/Hint : XviD
Duration : 1h 57mn
Bit rate : 1 322 Kbps
Width : 720 pixels
Height : 384 pixels
Display aspect ratio : 1.875
Frame rate : 23.976 fps
Color space : YUV
Chroma subsampling : 4:2:0
Bit depth : 8 bits
Scan type : Progressive
Compression mode : Lossy
Bits/(Pixel*Frame) : 0.199
Stream size : 1.09 GiB (74%)
Writing library : XviD 1.2.1 (UTC 2008-12-04)
Audio
ID : 1
Format : AC-3
Format/Info : Audio Coding 3
Mode extension : CM (complete main)
Codec ID : 2000
Duration : 1h 57mn
Bit rate mode : Constant
Bit rate : 448 Kbps
Channel(s) : 6 channels
Channel positions : Front: L C R, Side: L R, LFE
Sampling rate : 48.0 KHz
Bit depth : 16 bits
Compression mode : Lossy
Delay relative to video : 4s 500ms
Stream size : 377 MiB (25%)
Alignment : Split accross interleaves
Interleave, duration : 42 ms (1.00 video frame)
Interleave, preload duration : 500 ms

Скриншоты

Создавать темы 11-Июл-2013 14:53

[Профиль]  [ЛС] 

Топик был перенесен из форума Зарубежное кино в форум 250 лучших фильмов по версии IMDb

mp1988

Создавать темы 11-Июл-2013 15:20

 

GIGABYTE158

Стаж: 5 лет 6 месяцев

Сообщений: 71

Симпатии: 13

Ыыыыыы крутой фильм

Создавать темы 16-Июл-2013 11:38

[Профиль]  [ЛС] 

dadil

Стаж: 4 года 9 месяцев

Сообщений: 20

Симпатии: 4

Почему-то не загружается. Сиды есть но загрузки не происходит! В чем дело? Помогите пожалуйста...
Заранее спасибо.

Создавать темы 18-Июл-2013 16:33

[Профиль]  [ЛС] 

vallar

Стаж: 4 года 6 месяцев

Сообщений: 16

где все? за неделю всего 4% скачалось

Создавать темы 30-Июл-2013 13:51

[Профиль]  [ЛС] 
Показать сообщения:    
Ответить на тему

Текущее время: 15-Дек 22:45

Часовой пояс: UTC + 5



Вы не можете начинать темы
Вы не можете отвечать на сообщения
Вы не можете редактировать свои сообщения
Вы не можете удалять свои сообщения
Вы не можете голосовать в опросах
Вы не можете прикреплять файлы к сообщениям
Вы не можете скачивать файлы