Странный Томас / Odd Thomas (Стивен Соммерс / Stephen Sommers) [2013 г., триллер, детектив, DVDRip] MVO

Ответить на тему
 

mp1988 ®

Стаж: 6 лет 9 месяцев

Сообщений: 607

Симпатии: 971

Странный Томас / Odd Thomas
--Год выпуска: 2013
Страна: США
Жанр: триллер, детектив
Продолжительность: 01:32:41
Перевод: Профессиональный (многоголосый, закадровый) - (Товарищество 110/17)--Режиссер: Стивен Соммерс / Stephen Sommers--В ролях: Антон Ельчин, Эшли Соммерс, Леонор Варела, Мэттью Пейдж, Кэйси Мессер, Берни Леннинг, Нико Торторелла, Уиллем Дефо, Кайл МакКивер, Кармен Корли--Описание: Главный герой наделен даром (или проклятием) видеть мертвецов. Каждый их визит становится началом очередной охоты на убийцу — призраки ведут Томаса на помощь тем, кому еще рано расставаться с жизнью. О способности героя знают только самые близкие друзья и любимая девушка. С их помощью ему предстоит отвести большую беду от маленького городка в центре пустыни Мохаве.--Доп. информация:
Перевод:Константин Кривоногов
Работа со звуком:Алексей Фокин
Роли озвучивали:
  • Михаил Суслов
  • Константин Погодаев
  • Владимир Чистохин
  • Алексей Фокин
  • Анастасия Флигина
  • Светлана Чистохина-- --Качество: DVDRip
    Формат: AVI
    Видео кодек: XviD
    Аудио кодек: AC3
    Видео: 720x304, 25.000 fps, 1 720 Kbps, 0.314 bit/pixel
    Аудио: AC3, 48 KHz, 384 Kbps, 6 ch - Rus

    Скриншоты





    MediaInfo

    Format : AVI
    Format/Info : Audio Video Interleave
    File size : 1.41 GiB
    Duration : 1h 32mn
    Overall bit rate : 2 178 Kbps
    Writing application : VirtualDubModRus 1.5.10.2 (build 2542/release)
    Writing library : VirtualDubMod build 2542/release
    Video
    ID : 0
    Format : MPEG-4 Visual
    Format profile : Advanced [email protected]
    Format settings, BVOP : 2
    Format settings, QPel : No
    Format settings, GMC : No warppoints
    Format settings, Matrix : Default (H.263)
    Muxing mode : Packed bitstream
    Codec ID : XVID
    Codec ID/Hint : XviD
    Duration : 1h 32mn
    Bit rate : 1 720 Kbps
    Width : 720 pixels
    Height : 304 pixels
    Display aspect ratio : 2.35:1
    Frame rate : 25.000 fps
    Color space : YUV
    Chroma subsampling : 4:2:0
    Bit depth : 8 bits
    Scan type : Progressive
    Compression mode : Lossy
    Bits/(Pixel*Frame) : 0.314
    Stream size : 1.11 GiB (79%)
    Writing library : XviD 64
    Audio
    ID : 1
    Format : AC-3
    Format/Info : Audio Coding 3
    Mode extension : CM (complete main)
    Format settings, Endianness : Big
    Codec ID : 2000
    Duration : 1h 32mn
    Bit rate mode : Constant
    Bit rate : 448 Kbps
    Channel(s) : 6 channels
    Channel positions : Front: L C R, Side: L R, LFE
    Sampling rate : 48.0 KHz
    Bit depth : 16 bits
    Compression mode : Lossy
    Stream size : 297 MiB (21%)
    Alignment : Split accross interleaves
    Interleave, duration : 40 ms (1.00 video frame)
    Interleave, preload duration : 500 ms
  • Создавать темы 11-Июл-2013 15:08

    [Профиль]  [ЛС] 

    mp1988 ®

    Стаж: 6 лет 9 месяцев

    Сообщений: 607

    Симпатии: 971

    Товарищество 110/17 - это основные участники таких студий, как DreamRecords & AlexFilm

    Создавать темы 11-Июл-2013 19:10

    [Профиль]  [ЛС] 

    Imperiya

    Стаж: 6 лет 7 месяцев

    Сообщений: 275

    Симпатии: 4

    http://imperiya.mytube.uz/ вот трейлер к фылмьу

    Создавать темы 12-Июл-2013 22:21

    [Профиль]  [ЛС] 

    StandAloneComplex

    Стаж: 4 года 6 месяцев

    Сообщений: 15

    Симпатии: 2

    Отличный фильм! Советую всем любителям чёрного юмора.

    Создавать темы 13-Июл-2013 14:18

    [Профиль]  [ЛС] 

    VAIO

    Стаж: 5 лет 10 месяцев

    Сообщений: 1568

    Симпатии: 1399

    Антон Ельчин чуток поправился уже в этом фильме, фильм интересный и чуть не обычный : )

    Создавать темы 13-Июл-2013 14:20

    [Профиль]  [ЛС] 

    axeman

    Стаж: 5 лет

    Сообщений: 380

    Симпатии: 50

    странная фамилия у переводчика Кривоногов надеюсь он правильно перевел........

    Создавать темы 13-Июл-2013 15:06

    [Профиль]  [ЛС] 

    McFLY

    Стаж: 5 лет 8 месяцев

    Сообщений: 658

    Симпатии: 22

    Фильм отличный ... надеюсь что буду снимать и остальные истории ... так как вроде книжек около десяти!!!

    Создавать темы 14-Июл-2013 10:13

    [Профиль]  [ЛС] 

    Born2MakeUHappy

    Стаж: 5 лет 7 месяцев

    Сообщений: 9

    Симпатии: 11

    Пипец как девчёнку в конце жалко :( Жена чуть не расплакалась

    Создавать темы 14-Июл-2013 21:38

    [Профиль]  [ЛС] 

    ozodbek quryazov

    Стаж: 5 лет 9 месяцев

    Сообщений: 38

    Отличный фильм спосиба

    Создавать темы 19-Июл-2013 14:43

    [Профиль]  [ЛС] 

    Damir5588

    Стаж: 7 лет 1 месяц

    Сообщений: 5

    кул фильм советую!!!

    Создавать темы 19-Июл-2013 16:17

    [Профиль]  [ЛС] 

    qwertyyy

    Стаж: 4 года 10 месяцев

    Сообщений: 46

    Симпатии: 2

    По комментам ожидал большего..но посмотреть можно.

    Создавать темы 20-Июл-2013 22:38

    [Профиль]  [ЛС] 

    Sakar

    Стаж: 4 года

    Сообщений: 26

    неожиданный финал, но классный.

    Создавать темы 05-Ноя-2013 23:44

    [Профиль]  [ЛС] 

    Жасулан_89

    Стаж: 5 лет 2 месяца

    Сообщений: 70

    Симпатии: 2

    один из самых странных фильмов какие я видел... и это круто! ay автору спасибо большое. финал супер mb

    Создавать темы 13-Ноя-2013 21:27

    [Профиль]  [ЛС] 

    alpomish

    Стаж: 5 лет 8 месяцев

    Сообщений: 7

    Этот фильм проста супер. Такие люди и такие существо тварится там они существует реалном мири. Спасибо за рилиз

    Создавать темы 14-Ноя-2013 13:55

    [Профиль]  [ЛС] 
    Показать сообщения:    
    Ответить на тему

    Текущее время: 18-Ноя 11:43

    Часовой пояс: UTC + 5



    Вы не можете начинать темы
    Вы не можете отвечать на сообщения
    Вы не можете редактировать свои сообщения
    Вы не можете удалять свои сообщения
    Вы не можете голосовать в опросах
    Вы не можете прикреплять файлы к сообщениям
    Вы не можете скачивать файлы