Корабль ужаса / Spaceship Terror (Harry Tchinski) [2011 г., ужасы, фантастика, триллер, ..., DVDRip]

Ответить на тему
 

igor1968 ®

Стаж: 5 лет 7 месяцев

Сообщений: 366

Симпатии: 197

Корабль ужаса / Spaceship Terror
Год выпуска: 2011
Страна:
Жанр: ужасы, фантастика, триллер, ...
Продолжительность: 01:33:36.710
Перевод: Любительский (одноголосый)
Режиссер: Harry Tchinski
В ролях: Кристен Спрингер
Джей Уэсли Кохрэн
Lacey Blair
Stephen Lestat
Эмма Ли Нгуйен
Ronda Olshefski
Yulia Hancheroff
Дженни Лин
В результате кораблекрушения пять женщин и один раненый мужчина оказались на заброшенной планете. Их сигнал бедствия был услышан одним из космических кораблей. Поднимаясь на борт этого корабля они и не представляли какой ад их там ожидает… Премьера 10 июня 2011, ...   Качество: DVDRip
Формат: AVI
Видео кодек: XviD
Аудио кодек: MPEG Audio
Видео: 720x416 (1.73:1), 29.970 fps, XviD build 46 ~1497 kbps avg, 0.17 bit/pixel
Аудио: 48 kHz, MPEG Layer 3, 2 ch, ~192.00 kbps avg

MediaInfo

General
Complete name : Spaceship Terror_KypoJIecoB_DVDRip.avi
Format : AVI
Format/Info : Audio Video Interleave
File size : 1.11 GiB
Duration : 1h 33mn
Overall bit rate : 1 701 Kbps
Writing application : VirtualDubMod 1.5.10.2 (build 2540/release)
Writing library : VirtualDubMod build 2540/release
Video
ID : 0
Format : MPEG-4 Visual
Format profile : [email protected]
Format settings, BVOP : No
Format settings, QPel : No
Format settings, GMC : No warppoints
Format settings, Matrix : Default (H.263)
Codec ID : XVID
Codec ID/Hint : XviD
Duration : 1h 33mn
Bit rate : 1 498 Kbps
Width : 720 pixels
Height : 416 pixels
Display aspect ratio : 1.731
Frame rate : 29.970 fps
Color space : YUV
Chroma subsampling : 4:2:0
Bit depth : 8 bits
Scan type : Progressive
Compression mode : Lossy
Bits/(Pixel*Frame) : 0.167
Stream size : 1 003 MiB (88%)
Writing library : XviD 1.1.2 (UTC 2006-11-01)
Audio
ID : 1
Format : MPEG Audio
Format version : Version 1
Format profile : Layer 3
Mode : Joint stereo
Codec ID : 55
Codec ID/Hint : MP3
Duration : 1h 33mn
Bit rate mode : Constant
Bit rate : 192 Kbps
Channel(s) : 2 channels
Sampling rate : 48.0 KHz
Compression mode : Lossy
Stream size : 129 MiB (11%)
Alignment : Aligned on interleaves
Interleave, duration : 33 ms (1.00 video frame)
Interleave, preload duration : 504 ms

Скриншоты



Последний раз редактировалось: igor1968 (2013-07-11 23:03), всего редактировалось 1 раз

Создавать темы 11-Июл-2013 19:04

[Профиль]  [ЛС] 

Senat

Стаж: 6 лет 8 месяцев

Сообщений: 251

пахнет тв3

Создавать темы 11-Июл-2013 20:27

[Профиль]  [ЛС] 

.::RaMoN::.

Стаж: 4 года 3 месяца

Сообщений: 2

оооооо спс за релиз!!!

Создавать темы 11-Июл-2013 20:29

[Профиль]  [ЛС] 

vanfank

Стаж: 4 года 5 месяцев

Сообщений: 141

Симпатии: 5

пахнет тв3
хуже!

Создавать темы 20-Ноя-2013 12:39

[Профиль]  [ЛС] 

kralyan

Стаж: 5 лет 1 месяц

Сообщений: 72

Симпатии: 7

Последний скрин жесть!

Создавать темы 29-Дек-2013 01:00

[Профиль]  [ЛС] 
Показать сообщения:    
Ответить на тему

Текущее время: 17-Окт 20:17

Часовой пояс: UTC + 5



Вы не можете начинать темы
Вы не можете отвечать на сообщения
Вы не можете редактировать свои сообщения
Вы не можете удалять свои сообщения
Вы не можете голосовать в опросах
Вы не можете прикреплять файлы к сообщениям
Вы не можете скачивать файлы