Том и Джерри: Трепещи, Усатый! (видео) / Tom and Jerry in Shiver Me Whiskers (Скотт Джералдс) [2006, мультфильм, комедия, семейный , BDRip 1080p]

Ответить на тему
 

ruslan08 ®

Стаж: 5 лет 11 месяцев

Сообщений: 73

Симпатии: 7

Том и Джерри: Трепещи, Усатый! (видео)
Tom and Jerry in Shiver Me Whiskers
Год выпуска: 2006
Страна: США
Жанр: мультфильм, комедия, семейный
Продолжительность: 01:11:31
Перевод: Профессиональный(дублированный)
Субтитры: Russian (UTF-8), English (UTF-8)-Режиссер: Скотт Джералдс / Scott Jeralds
-
В ролях: Марк Хэмилл (Skull, озвучка), Кэти Нэджими (Blue Parrot Betty, озвучка), Чарльз Нельсон Рейли (Red Parrot Stan, озвучка), Кевин Майкл Ричардсон (Red Pirate Ron, Blue Pirate Bob, Purple Parrot, озвучка), Уоллес Шоун (Purple Pirate Paul, рассказчик, озвучка)-Описание: Это хулиганское путешествие затеял Том, когда отправился в плавание на непритязательной лодке за самым известным и ужасным пиратом морей Капитаном Рэдом. Устав драить палубу, Том думает, что удача изменила ему, но тут неожиданно всплывает мистическая бутылка, в которой хранится карта сокровищ. Мечта Тома найти сокровище и забрать его себе, похоже, невыполнима — в бутылке, кроме карты, обнаружился мышонок Джерри. Бедный маленький Джерри был стражем карты, а теперь у него на хвосте жадный кот. Придется ли Джерри отдать сокровище? Попадет ли Том первым на остров? Гонка началась, а Тому и Джерри нужно быть вместе, чтобы пробраться через обезьян, атакующих кокосами, обойти гигантского осьминога, а также перехитрить пиратов, и найти, наконец спрятанные сокровища!
-
Рейтинг ВКИП: Для детей, не достигших возраста шести лет
Качество: BDRip
Формат: MKV
Видео кодек : H.264 (AVC)
Аудио кодеk: AC3
Видео: 1 920х1080 (16:9), 23.976 fps, AVC, 8114 Kbps
Аудио: AC3, 192 Kbps, 48.0 KHz, 2 ch ( russian)
Аудио #2: AC3, 448 Kbps, 48.0 KHz, 6 ch (english)

МедиаИнфо

General
Unique ID : 224613765748444806458879705970029175547 (0xA8FB09A92CB8D777BDAC925BFB0922FB)
Complete name : Tom and Jerry in Shiver(2006)1080p.F-HD.mkv
Format : Matroska
Format version : Version 4 / Version 2
File size : 4.37 GiB
Duration : 1h 11mn
Overall bit rate : 8 748 Kbps
Encoded date : UTC 2013-04-26 14:06:19
Writing application : mkvmerge v6.1.0 ('Old Devil') built on Mar 2 2013 14:32:37
Writing library : libebml v1.3.0 + libmatroska v1.4.0
Video
ID : 1
Format : AVC
Format/Info : Advanced Video Codec
Format profile : [email protected]
Format settings, CABAC : Yes
Format settings, ReFrames : 4 frames
Codec ID : V_MPEG4/ISO/AVC
Bit rate : 8 114 Kbps
Width : 1 920 pixels
Height : 1 080 pixels
Display aspect ratio : 16:9
Frame rate mode : Variable
Original frame rate : 23.976 fps
Color space : YUV
Chroma subsampling : 4:2:0
Bit depth : 8 bits
Scan type : Progressive
Bits/(Pixel*Frame) : 0.163
Writing library : x264 core 130 r2273kMod b3065e6
Encoding settings : cabac=1 / ref=4 / deblock=1:-3:-3 / analyse=0x3:0x113 / me=umh / subme=11 / psy=1 / fade_compensate=0.00 / psy_rd=0.80:0.05 / mixed_ref=1 / me_range=48 / chroma_me=1 / trellis=2 / 8x8dct=1 / cqm=0 / deadzone=21,11 / fast_pskip=0 / chroma_qp_offset=-3 / threads=6 / lookahead_threads=1 / sliced_threads=0 / nr=0 / decimate=1 / interlaced=0 / bluray_compat=0 / constrained_intra=0 / bframes=8 / b_pyramid=2 / b_adapt=2 / b_bias=0 / direct=3 / weightb=1 / open_gop=0 / weightp=2 / keyint=250 / keyint_min=23 / scenecut=40 / intra_refresh=0 / rc_lookahead=40 / rc=2pass / mbtree=0 / bitrate=8114 / ratetol=1.0 / qcomp=0.75 / qpmin=0 / qpmax=69 / qpstep=4 / cplxblur=20.0 / qblur=0.5 / vbv_maxrate=50000 / vbv_bufsize=62500 / nal_hrd=none / ip_ratio=1.40 / pb_ratio=1.30 / aq=3:0.70
Language : English
Default : Yes
Forced : No
Matrix coefficients : BT.709
Audio #1
ID : 2
Format : AC-3
Format/Info : Audio Coding 3
Format profile : Dolby Digital
Mode extension : CM (complete main)
Format settings, Endianness : Big
Codec ID : A_AC3
Duration : 1h 11mn
Bit rate mode : Constant
Bit rate : 192 Kbps
Channel(s) : 2 channels
Channel positions : Front: L R
Sampling rate : 48.0 KHz
Bit depth : 16 bits
Compression mode : Lossy
Stream size : 98.2 MiB (2%)
Language : Russian
Default : Yes
Forced : No
Audio #2
ID : 3
Format : AC-3
Format/Info : Audio Coding 3
Mode extension : CM (complete main)
Format settings, Endianness : Big
Codec ID : A_AC3
Duration : 1h 11mn
Bit rate mode : Constant
Bit rate : 448 Kbps
Channel(s) : 6 channels
Channel positions : Front: L C R, Side: L R, LFE
Sampling rate : 48.0 KHz
Bit depth : 16 bits
Compression mode : Lossy
Stream size : 229 MiB (5%)
Language : English
Default : No
Forced : No
Text #1
ID : 4
Format : UTF-8
Codec ID : S_TEXT/UTF8
Codec ID/Info : UTF-8 Plain Text
Language : Russian
Default : No
Forced : No
Text #2
ID : 5
Format : UTF-8
Codec ID : S_TEXT/UTF8
Codec ID/Info : UTF-8 Plain Text
Language : English
Default : No
Forced : No
Menu
00:00:00.000 : en:00:00:00.000
00:10:00.391 : en:00:10:00.391
00:20:08.123 : en:00:20:08.123
00:29:55.001 : en:00:29:55.001
00:40:27.842 : en:00:40:27.842
00:51:00.348 : en:00:51:00.348
00:59:27.355 : en:00:59:27.355
01:08:18.052 : en:01:08:18.052

Создавать темы 11-Июл-2013 20:53

[Профиль]  [ЛС] 

ruslan08 ®

Стаж: 5 лет 11 месяцев

Сообщений: 73

Симпатии: 7

Раздача будет с 21.00 вечера до 07.00 утра.

Создавать темы 12-Июл-2013 09:18

[Профиль]  [ЛС] 

ruslan08 ®

Стаж: 5 лет 11 месяцев

Сообщений: 73

Симпатии: 7

nesam,
Я буду раздавать только дай скачать 73% осталось чуть чуть
терпение только терпение

Создавать темы 14-Июл-2013 21:20

[Профиль]  [ЛС] 

ruslan08 ®

Стаж: 5 лет 11 месяцев

Сообщений: 73

Симпатии: 7

nesam,
:) я на ночь оставляю
без проблем

Создавать темы 16-Июл-2013 01:25

[Профиль]  [ЛС] 

shaxzod_sher

Стаж: 5 лет 3 месяца

Сообщений: 6

Я буду раздавать только дай скачать 42% осталось

Создавать темы 04-Сен-2013 00:09

[Профиль]  [ЛС] 

Glover

Стаж: 6 лет 10 месяцев

Сообщений: 30

[url][img][quote][list][s][u][i][i][/i][/i][/u][/s][/list][/quote][/img][/url]

Создавать темы 31-Окт-2013 11:35

[Профиль]  [ЛС] 

uzdevboy

Стаж: 5 лет 2 месяца

Сообщений: 21

dayte skorosti pojaluystashaxzod_sher, Glover, ruslan08, nesam, ruslan08,

Создавать темы 09-Фев-2014 21:01

[Профиль]  [ЛС] 
Показать сообщения:    
Ответить на тему

Текущее время: 12-Дек 19:24

Часовой пояс: UTC + 5



Вы не можете начинать темы
Вы не можете отвечать на сообщения
Вы не можете редактировать свои сообщения
Вы не можете удалять свои сообщения
Вы не можете голосовать в опросах
Вы не можете прикреплять файлы к сообщениям
Вы не можете скачивать файлы