Решала (Роман Асхаев) [2012 г., драма, криминал, WEBDLRip]

Ответить на тему
 

igor1968 ®

Стаж: 5 лет 8 месяцев

Сообщений: 366

Симпатии: 197

Решала
Год выпуска: 2012
Жанр: драма, криминал
Продолжительность:01:19:10.586
Режиссер: Роман Асхаев
В ролях: Александр Фролов, Константин Озеров, Алина Намсараева, Мосэ Куртанидзэ, Руслан Балакшиев, Лариса Иринцеева
Фильм о двух братьях. Старший — юрист, успешный человек, к нему обращаются за решением различных вопросов. Но ему предстоит решить самую главную задачу своей жизни-вытащить младшего брата из криминальной передряги. Примьера: 22.11.2012   Качество: WEBDLRip
Формат: AVI
Видео кодек: XviD
Аудио кодек: AC3
Видео: 720x304 (2.37:1), 24.000 fps, XviD build 50 ~2206 kbps avg, 0.42 bit/pixel
Аудио: 48 kHz, AC3 Dolby Digital, 2/0 (L,R) ch, ~256.00 kbps avg

MediaInfo

General
Complete name : D:Reshala.2012.O.WEBDLRip.avi
Format : AVI
Format/Info : Audio Video Interleave
File size : 1.37 GiB
Duration : 1h 19mn
Overall bit rate : 2 472 Kbps
Writing application : VirtualDubMod 1.5.10.3 | www.virtualdub-fr.org || (build 2550/release)
Writing library : VirtualDubMod build 2550/release
Video
ID : 0
Format : MPEG-4 Visual
Format profile : Advanced [email protected]
Format settings, BVOP : 2
Format settings, QPel : No
Format settings, GMC : No warppoints
Format settings, Matrix : Default (MPEG)
Codec ID : XVID
Codec ID/Hint : XviD
Duration : 1h 19mn
Bit rate : 2 206 Kbps
Width : 720 pixels
Height : 304 pixels
Display aspect ratio : 2.35:1
Frame rate : 24.000 fps
Color space : YUV
Chroma subsampling : 4:2:0
Bit depth : 8 bits
Scan type : Progressive
Compression mode : Lossy
Bits/(Pixel*Frame) : 0.420
Stream size : 1.22 GiB (89%)
Writing library : XviD 1.2.1 (UTC 2008-12-04)
Audio
ID : 1
Format : AC-3
Format/Info : Audio Coding 3
Mode extension : CM (complete main)
Format settings, Endianness : Big
Codec ID : 2000
Duration : 1h 19mn
Bit rate mode : Constant
Bit rate : 256 Kbps
Channel(s) : 2 channels
Channel positions : Front: L R
Sampling rate : 48.0 KHz
Bit depth : 16 bits
Compression mode : Lossy
Stream size : 145 MiB (10%)
Alignment : Split accross interleaves
Interleave, duration : 42 ms (1.00 video frame)
Interleave, preload duration : 500 ms

Скриншоты

РЕЦЕНЗИИ

История рассказывает о двух братьях потерявших родителей будучи детьми, старший(Константин Озеров), успешный адвокат, как правило «Решющий» вопросы устно. Второй, не без подсказки картины воспитан обществом. Младший брат «Каша»(Александр Фролов), типичный представитель дорвавшихся до вседозволенности и не знающих последствий людей. То и дело попадает в неприятности, зачастую из которых его вытаскивает старший. Но погоня за легкими деньгами дают свои плоды. Оба главных героя совершенно разные люди, один стремиться вести дела спокойно, и без лишнего шума, развиваются серьезные отношения с девушкой, второму, совершенно, до «лампочки», что и почему. Но, они, братья, старшие в ответе за младших.
Игра главных актеров, довольно хороша, учитывая, начальные этапы развития кинематографа р. Бурятия. В целом по фильму безусловно, присутствуют эпизоды с откровенно неважной игрой, но это не так значительно. Актерский состав подобран весьма успешно, в особенности, колоритные криминальные личности.
Неприятный факт при просмотре, оставил монтаж, есть моменты с морганием картинки, звуковыми искажениями, и явное, откровенное звучание записи микрофона. Далее, следует упомянуть об операторской работе, в моменты движения главного героя крупным планом, камеру существенно колеблет. В остальном, особых нареканий не вызывает. В последнее время, в международной практики, режиссеры, стремятся уделять внимание правдоподобности событий в кадре, но один момент, остается в памяти. Сцена, небольшой потасовки возле ночного клуба, слегка вводит в сомнения, люди из Улан-Удэ, как минимум раз тусившие в клубах, знают, что по утру в nicht clube не будет такого ночного разгара.
В фильме наблюдается обильное перемещение авто, под однотипную качающую музыку, все это замечательно, но в избытке. Отлично показано распитие спиртных напитков под даб-степ. Не обошлось и без пафосных стрелок, и передвижений по городу.)
В картине присутствует «дух» таких фильмов как «Рэкетир» и «Сказ о Розовом Зайце» как правило большинство фильмов с криминальным характером, несут в себе смысл, о неправильности тех или иных противозаконных действий, зачастую выливаются в новую моду подражания.
7 из 10
Так как данная картина существенно сильней предыдущих работ режиссера, и за то, что республиканская киноиндустрия не стоит на месте.
p.s. после просмотра осталось некое чувство безнадежности, так как все у нас решается по связям, или криминальным структурам. True story


Последний раз редактировалось: igor1968 (2013-07-11 23:08), всего редактировалось 3 раз(а)

Создавать темы 11-Июл-2013 21:33

[Профиль]  [ЛС] 

mercury

Стаж: 5 лет 4 месяца

Сообщений: 48

Симпатии: 1

ты забыл прописать продолжительность!

Создавать темы 11-Июл-2013 22:48

[Профиль]  [ЛС] 

plucky07

Стаж: 5 лет 1 месяц

Сообщений: 2

дайте скорости пожалуйста, уже пятый день не могу скачать.

Создавать темы 28-Ноя-2013 23:43

[Профиль]  [ЛС] 

Dava2112

Стаж: 5 лет 10 месяцев

Сообщений: 15

Раздачу дайте пож...............

Создавать темы 07-Дек-2013 14:11

[Профиль]  [ЛС] 

Loky

Стаж: 4 года 4 месяца

Сообщений: 75

Симпатии: 8

ребят как насчет скорости?

Создавать темы 10-Май-2014 23:57

[Профиль]  [ЛС] 

kiborg911

Стаж: 6 лет 9 месяцев

Сообщений: 58

Симпатии: 3

люди добрые дайте скачать?

Создавать темы 06-Май-2015 15:00

[Профиль]  [ЛС] 
Показать сообщения:    
Ответить на тему

Текущее время: 18-Ноя 07:57

Часовой пояс: UTC + 5



Вы не можете начинать темы
Вы не можете отвечать на сообщения
Вы не можете редактировать свои сообщения
Вы не можете удалять свои сообщения
Вы не можете голосовать в опросах
Вы не можете прикреплять файлы к сообщениям
Вы не можете скачивать файлы