G.I. Joe: Бросок кобры 2 / G.I. Joe: Retaliation [2013 г., фантастика, боевик, триллер, приключения, WEB-DL-RIP 720p]

Ответить на тему
 

DMiTRY ®

Стаж: 6 лет 6 месяцев

Сообщений: 649

Симпатии: 28

Название:G.I. Joe: Бросок кобры 2
Оригинальное название: G.I. Joe: Retaliation-Год выхода:2013
Жанр:фантастика, боевик, триллер, приключения
Продолжительность:01:45:44
Перевод:Дублированное [Чистый звук]
Выпущено: США, Di Bonaventura Pictures, Hasbro Inc., Metro-Goldwyn-Mayer (MGM), Paramount Pictures, Skydance Productions
--Режиссер:Джон М. Чу-В ролях:Дуэйн Джонсон, Брюс Уиллис, Ченнинг Татум, Эдрианн Палики, Рэй Парк, Ли Бён Хон, Д.Дж. Котрона, Джонатан Прайс, Элоди Юнг, Люк Брейси-Сюжет фильма:Во второй части отряд «G.I. Joe» вновь объявит вызов группировке «Кобра» и вступит в противостояние с правительством…
--Формат: MKV
Качество: WEB-DL-RIP-Видео-кодек: MPEG-4 AVC
Аудио-кодек: AC 3-Видео: MPEG-4 AVC, 5457 Кбит/с, 1280x528-Аудио №1: Русский (AC3, 2 ch, 320 Кбит/с)
Аудио №2: Английский (AC3, 6 ch, 448 Кбит/с)
--

Скриншоты



Медиаинфо

Общее
Уникальный идентификатор : 250380001110238580861190917130180025549 (0xBC5D6F253372E60CAF857A1E49BEDCCD)
Полное имя : E:\фильмы\Бросок кобры 2 [2013 WEB-DL-RIP 720p].mkv
Формат : Matroska
Версия формата : Version 2
Размер файла : 4,60 Гбайт
Продолжительность : 1 ч. 45 м.
Общий поток : 6225 Кбит/сек
Название фильма : G.I. Joe: Бросок кобры 2 / G.I. Joe: Retaliation
Дата кодирования : UTC 2013-07-09 08:35:12
Программа кодирования : mkvmerge v4.9.1 ('Ich will') сборка от Jul 11 2011 23:53:15
Библиотека кодирования : libebml v1.2.1 + libmatroska v1.1.1
Видео
Идентификатор : 1
Формат : AVC
Формат/Информация : Advanced Video Codec
Профиль формата : [email protected]
Параметр CABAC формата : Да
Параметр ReFrames формата : 4 кадра
Идентификатор кодека : V_MPEG4/ISO/AVC
Продолжительность : 1 ч. 45 м.
Битрейт : 5457 Кбит/сек
Ширина : 1280 пикселей
Высота : 528 пикселей
Соотношение сторон : 2,40:1
Частота кадров : 25,000 кадров/сек
Цветовое пространство : YUV
Субдискретизация насыщенности : 4:2:0
Битовая глубина : 8 бит
Тип развёртки : Прогрессивная
Бит/(Пиксели*Кадры) : 0.323
Размер потока : 3,94 Гбайт (86%)
Библиотека кодирования : x264 core 107 r1745 4785e8e
Настройки программы : cabac=1 / ref=4 / deblock=1:0:0 / analyse=0x3:0x113 / me=umh / subme=9 / psy=1 / psy_rd=1.00:0.00 / mixed_ref=1 / me_range=16 / chroma_me=1 / trellis=0 / 8x8dct=1 / cqm=0 / deadzone=21,11 / fast_pskip=1 / chroma_qp_offset=-2 / threads=36 / sliced_threads=0 / nr=0 / decimate=1 / interlaced=0 / constrained_intra=0 / bframes=4 / b_pyramid=2 / b_adapt=2 / b_bias=0 / direct=3 / weightb=1 / open_gop=0 / weightp=2 / keyint=250 / keyint_min=25 / scenecut=40 / intra_refresh=0 / rc_lookahead=40 / rc=2pass / mbtree=1 / bitrate=5457 / ratetol=1.0 / qcomp=0.60 / qpmin=10 / qpmax=51 / qpstep=4 / cplxblur=20.0 / qblur=0.5 / ip_ratio=1.40 / aq=1:1.00
Язык : English
Default : Да
Forced : Нет
Аудио #1
Идентификатор : 2
Формат : AC-3
Формат/Информация : Audio Coding 3
Расширение режима : CM (complete main)
Параметр Endianness формата : Big
Идентификатор кодека : A_AC3
Продолжительность : 1 ч. 45 м.
Вид битрейта : Постоянный
Битрейт : 320 Кбит/сек
Каналы : 2 канала
Расположение каналов : Front: L R
Частота : 48,0 КГц
Битовая глубина : 16 бит
Метод сжатия : С потерями
Задержка видео : 104 мс.
Размер потока : 242 Мбайт (5%)
Язык : Russian
Default : Да
Forced : Нет
Аудио #2
Идентификатор : 3
Формат : AC-3
Формат/Информация : Audio Coding 3
Расширение режима : CM (complete main)
Параметр Endianness формата : Big
Идентификатор кодека : A_AC3
Продолжительность : 1 ч. 45 м.
Вид битрейта : Постоянный
Битрейт : 448 Кбит/сек
Каналы : 6 каналов
Расположение каналов : Front: L C R, Side: L R, LFE
Частота : 48,0 КГц
Битовая глубина : 16 бит
Метод сжатия : С потерями
Размер потока : 339 Мбайт (7%)
Язык : English
Default : Нет
Forced : Нет
Меню
00:00:00.000 : en:00:00:00.000
00:05:53.199 : en:00:05:53.199
00:12:20.720 : en:00:12:20.720
00:16:52.279 : en:00:16:52.279
00:24:34.440 : en:00:24:34.440
00:29:40.200 : en:00:29:40.200
00:37:25.039 : en:00:37:25.039
00:40:56.119 : en:00:40:56.119
00:46:32.039 : en:00:46:32.039
00:51:50.199 : en:00:51:50.199
00:59:15.199 : en:00:59:15.199
01:04:48.639 : en:01:04:48.639
01:10:55.119 : en:01:10:55.119
01:14:43.039 : en:01:14:43.039
01:20:20.159 : en:01:20:20.159
01:27:28.640 : en:01:27:28.640
01:37:04.600 : en:01:37:04.600

Создавать темы 12-Июл-2013 14:52

[Профиль]  [ЛС] 

Mixail_Stafford

Стаж: 4 года 11 месяцев

Сообщений: 38

Симпатии: 3

Влился в раздачу!

Создавать темы 12-Июл-2013 20:00

[Профиль]  [ЛС] 

СтАсИкОс

Стаж: 6 лет 11 месяцев

Сообщений: 314

Симпатии: 20

Mixail_Stafford, На будущее пользуйтесь поиском, а помощь в раздаче - это хорошо!

Создавать темы 12-Июл-2013 20:08

[Профиль]  [ЛС] 

Mixail_Stafford

Стаж: 4 года 11 месяцев

Сообщений: 38

Симпатии: 3

Я просто утром докачал, ушел по делам, а когда вернулся сразу же залил! Но меня опередили =(

Создавать темы 12-Июл-2013 20:49

[Профиль]  [ЛС] 

DMiTRY ®

Стаж: 6 лет 6 месяцев

Сообщений: 649

Симпатии: 28

Люди,которые качаете или просто ждете новых релизов от меня,скоро вернусь на трекер и буду радовать новыми релизами.

Создавать темы 13-Июл-2013 01:05

[Профиль]  [ЛС] 

kripton87

Стаж: 5 лет 10 месяцев

Сообщений: 6

Дмитрий, простите, как я понял, субтитров нет?

Создавать темы 13-Июл-2013 23:15

[Профиль]  [ЛС] 

DMiTRY ®

Стаж: 6 лет 6 месяцев

Сообщений: 649

Симпатии: 28

Дмитрий, простите, как я понял, субтитров нет?
нет,нету.

Создавать темы 14-Июл-2013 01:17

[Профиль]  [ЛС] 

vbr

Стаж: 4 года 7 месяцев

Сообщений: 3

дайте скорость!!!! 3й день скачать не могу этот фильм

Создавать темы 18-Июл-2013 23:17

[Профиль]  [ЛС] 

rustam012008

Стаж: 6 лет 3 месяца

Сообщений: 14

скооооооростиииииии пожалуйста людииииииииииииииииииииииииииииииииии

Создавать темы 19-Сен-2013 12:12

[Профиль]  [ЛС] 

BrBenjamiN

Стаж: 6 лет 7 месяцев

Сообщений: 25

Симпатии: 1

пожалуйста кто нибудь залейте этот фильм в 60fps

Создавать темы 18-Авг-2016 01:50

[Профиль]  [ЛС] 
Показать сообщения:    
Ответить на тему

Текущее время: 11-Дек 18:17

Часовой пояс: UTC + 5



Вы не можете начинать темы
Вы не можете отвечать на сообщения
Вы не можете редактировать свои сообщения
Вы не можете удалять свои сообщения
Вы не можете голосовать в опросах
Вы не можете прикреплять файлы к сообщениям
Вы не можете скачивать файлы