Один дома 5: Праздничное ограбление / Home Alone: The Holiday Heist (Питер Хьюит / Peter Hewitt) [2012, США, Канада, комедия, криминал, семейный, HDTVRip] MVO

Ответить на тему
 

abdumalikk ®

Стаж: 5 лет 2 месяца

Сообщений: 33

Симпатии: 1

Один дома 5: Праздничное ограбление / Home Alone: The Holiday Heist

Страна: США, Канада
Жанр: комедия, криминал, семейный
Год выпуска: 2012
Продолжительность: 01:27:44-Перевод: Профессиональный (многоголосый закадровый) /BaibaKo/
Субтитры: нет-Режиссер: Питер Хьюит / Peter Hewitt
В ролях: Эдвард Эснер , Питер ДаКуна , Джоделль Ферланд , Элли Харви , Кристиан Мартин , Деби Мейзар , Малкольм МакДауэлл , Даг Мюррэй , Крис Сигурдсон , Эдди Стиплз-
После переезда из солнечной Калифорнии в штат Мэн накануне Рождества, десятилетний Финн и самый младший ребенок в семье, очень непривычно и обеспокоенно чувствует себя в новом доме. Ему кажется, что ужаснее особняка просто и быть не может. Будучи убежденным в обитании здесь потусторонних существ и ради безопасности своей семьи, он подготавливает ловушки, в которые обязательно должны угодить злобные призраки. Оставшись в доме наедине со своей сестрой, малыш умудряется активировать свои сложно устроенные механизмы, в которые попадут вовсе не привидения...- -
Качество: HDTVRip
Контейнер: AVI
Видео: XviD, 720x400 (16:9), 1836 kbps, 23,976 fps, 0,266 bpp
Аудио: AC3 / 5.1 / 48 kHz / 384 kbps / 16 bit

MediaInfo

General
Complete name : F:\Odin.doma.5.2012.P.HDTVRip_1400.avi
Format : AVI
Format/Info : Audio Video Interleave
File size : 1.37 GiB
Duration : 1h 27mn
Overall bit rate : 2 230 Kbps
Writing application : VirtualDubMod 1.5.10.2 (build 2540/release)
Writing library : VirtualDubMod build 2540/release
Video
ID : 0
Format : MPEG-4 Visual
Format profile : Advanced [email protected]
Format settings, BVOP : 2
Format settings, QPel : No
Format settings, GMC : No warppoints
Format settings, Matrix : Default (MPEG)
Codec ID : XVID
Codec ID/Hint : XviD
Duration : 1h 27mn
Bit rate : 1 837 Kbps
Width : 720 pixels
Height : 400 pixels
Display aspect ratio : 16:9
Frame rate : 23.976 fps
Color space : YUV
Chroma subsampling : 4:2:0
Bit depth : 8 bits
Scan type : Progressive
Compression mode : Lossy
Bits/(Pixel*Frame) : 0.266
Stream size : 1.13 GiB (82%)
Writing library : XviD 1.2.1 (UTC 2008-12-04)
Audio
ID : 1
Format : AC-3
Format/Info : Audio Coding 3
Mode extension : CM (complete main)
Codec ID : 2000
Duration : 1h 27mn
Bit rate mode : Constant
Bit rate : 384 Kbps
Channel(s) : 6 channels
Channel positions : Front: L C R, Side: L R, LFE
Sampling rate : 48.0 KHz
Bit depth : 16 bits
Compression mode : Lossy
Stream size : 241 MiB (17%)
Alignment : Split accross interleaves
Interleave, duration : 42 ms (1.00 video frame)
Interleave, preload duration : 500 ms

Скриншоты


_________________
Подпись отключена за нарушение правил форума


Последний раз редактировалось: abdumalikk (2013-07-16 04:52), всего редактировалось 4 раз(а)

Создавать темы 14-Июл-2013 07:21

[Профиль]  [ЛС] 

Pendalf

Стаж: 6 лет 5 месяцев

Сообщений: 416

Симпатии: 34

abdumalikk, поправил все за Вас. Придерживайтесь подобного оформления в будущем

Создавать темы 14-Июл-2013 10:38

[Профиль]  [ЛС] 

Топик был перенесен из форума Фильмы без перевода в форум Фильмы за 2012

Pendalf

Создавать темы 14-Июл-2013 10:39

 

abdumalikk ®

Стаж: 5 лет 2 месяца

Сообщений: 33

Симпатии: 1


_________________
Подпись отключена за нарушение правил форума

Создавать темы 15-Июл-2013 22:08

[Профиль]  [ЛС] 

abdumalikk ®

Стаж: 5 лет 2 месяца

Сообщений: 33

Симпатии: 1


_________________
Подпись отключена за нарушение правил форума

Создавать темы 15-Июл-2013 23:30

[Профиль]  [ЛС] 

Heroes

Стаж: 5 лет 8 месяцев

Сообщений: 148

Симпатии: 3

Без Калкина фильм не фильм

Создавать темы 16-Июл-2013 00:25

[Профиль]  [ЛС] 
Показать сообщения:    
Ответить на тему

Текущее время: 18-Ноя 07:52

Часовой пояс: UTC + 5



Вы не можете начинать темы
Вы не можете отвечать на сообщения
Вы не можете редактировать свои сообщения
Вы не можете удалять свои сообщения
Вы не можете голосовать в опросах
Вы не можете прикреплять файлы к сообщениям
Вы не можете скачивать файлы