Мост / The Bridge / Сезон: 1 полный / Серии: 1-13 из 13 (Гвинет Хердер-Пэйтон, Билл Джонсон, Серджо Мимика-Геззан) [2013 г., Криминал, триллер, детектив, драма, WEB-DLRip] MVO [LostFilm]

Страницы :  1, 2  След.

Ответить на тему
 

saidali ®

Стаж: 5 лет 8 месяцев

Сообщений: 868

Симпатии: 554

-Мост / The Bridge-Полный первый сезон --
Год выпуска: 2013
Страна: США, FX Productions, Shine America
Жанр: Криминал, триллер, детектив, драма
Продолжительность: 60 мин.
Перевод: Профессиональный (многоголосый, закадровый) LostFilm-Режиссер: Гвинет Хердер-Пэйтон, Билл Джонсон, Серджо Мимика-Геззан-В ролях: Дайан Крюгер, Демиан Бишир, Тед Левайн, Эрик Ланж, Джейк Олстон, Эмили Риос, Карлос Праттс, Аннабет Гиш, Натали Аменула, Алекс Фернандез-Описание: В основу сюжета взята история из одноименного датско-шведского сериала. И если в первоисточнике действия разворачивались на границе Швеции и Дании, то в ремейке все события будут происходить по обе стороны границ США и Мексики.
Главные герои - два детектива, один из которых Марко Руиз работает в мексиканском подразделении по расследованию уголовных преступлений муниципалитета Хуарес, другой - Соня Норт, детектив убойного отдела полиции техасского города Эль-Пасо.
Руиз – положительный семьянин и один из самых честных сотрудников в местной коррумпированной полиции, серьезно сдавшей свои позиции по силе и мощи местным наркокартелям. Норт отличается ответственностью, умениями и навыками, которыми должен обладать высокопрофессиональный детектив.
Оба полицейских вынуждены действовать сообща для того, чтобы выследить серийного убийцу, который в ходе развития событий действует сразу на территориях двух государств.-Качество: WEB-DLRip
Формат: AVI
Видео кодек: XviD
Аудио кодек: MP3
Видео: XviD, 1217 Кбит/с, 720x400
Аудио: MP3, 2 ch, 192 Кбит/с-

 -

Скриншоты



Media Info

General
Complete name : D:\Фильмы\Сериалы\The Bridge\1 Season [LostFilm]\The.Bridge.S01E01.rus.LostFilm.TV.avi
Format : AVI
Format/Info : Audio Video Interleave
File size : 655 MiB
Duration : 1h 4mn
Overall bit rate : 1 422 Kbps
Writing application : Nandub v1.0rc2
Writing library : Nandub build 1853/release
Video
ID : 0
Format : MPEG-4 Visual
Format profile : [email protected]
Format settings, BVOP : No
Format settings, QPel : No
Format settings, GMC : No warppoints
Format settings, Matrix : Default (H.263)
Codec ID : XVID
Codec ID/Hint : XviD
Duration : 1h 4mn
Bit rate : 1 217 Kbps
Width : 720 pixels
Height : 400 pixels
Display aspect ratio : 16:9
Frame rate : 23.976 fps
Color space : YUV
Chroma subsampling : 4:2:0
Bit depth : 8 bits
Scan type : Progressive
Compression mode : Lossy
Bits/(Pixel*Frame) : 0.176
Stream size : 560 MiB (86%)
Writing library : XviD 1.2.1 (UTC 2008-12-04)
Audio
ID : 1
Format : MPEG Audio
Format version : Version 1
Format profile : Layer 3
Mode : Joint stereo
Mode extension : MS Stereo
Codec ID : 55
Codec ID/Hint : MP3
Duration : 1h 4mn
Bit rate mode : Constant
Bit rate : 192 Kbps
Channel(s) : 2 channels
Sampling rate : 48.0 KHz
Compression mode : Lossy
Stream size : 88.4 MiB (14%)
Alignment : Aligned on interleaves
Interleave, duration : 24 ms (0.58 video frame)
Interleave, preload duration : 480 ms

Раздача ведётся путём добавления новых серий

Раздача ведётся путём добавления новых серий; при каждом добавлении создаётся новый торрент. Чтобы начать докачку новой серии, пользователям необходимо сделать следующее:
(1) остановить скачивание,
(2) удалить старый торрент у себя из клиента (старые серии удалять не надо),
(3) скачать новый торрент и запустить его у себя в клиенте вместо старого, при этом указать клиенту путь в старую папку куда и должно происходить скачивание новых серий.
Ваш клиент при этом должен произвести хеширование (проверку) старой папки (если не производит сам - помогите ему сделать это), и будет докачивать только те серии которых у вас ещё нет. Старые серии при этом не удаляются, а продолжают раздаваться!
Eсли вы уже удалили старые серии, то предотвратить повторную закачку старых серий можно, отжав галочку в соответствующих местах при запуске нового торрента. По возможности, желательно не удалять старые серии как можно дольше чтобы релизёр не столько продолжал раздавать старые серии, а смог сконцентрироваться на новых.


Последний раз редактировалось: saidali (2014-04-24 09:45), всего редактировалось 20 раз(а)

Создавать темы 15-Июл-2013 10:12

[Профиль]  [ЛС] 

Sulaco

Стаж: 4 года 8 месяцев

Сообщений: 29

Отзывы о сериале неплохие) Качнём, спасибо!) Дайан Крюгер <3

Создавать темы 16-Июл-2013 08:31

[Профиль]  [ЛС] 

serjjoga

Стаж: 7 лет 1 месяц

Сообщений: 428

Симпатии: 33

Sulaco,
Да? Когда я читал, все хвалили датский оригинал, мерзко отзываясь об этой версии...

Создавать темы 16-Июл-2013 10:45

[Профиль]  [ЛС] 

Grock

Стаж: 6 лет 7 месяцев

Сообщений: 637

Симпатии: 113

Sulaco,
Да? Когда я читал, все хвалили датский оригинал, мерзко отзываясь об этой версии...
Кстати да, Датский сериал говорят куда лучше. Но судить не могу т.к. не смотрел ни оригинал ни этот сериал )..

Создавать темы 16-Июл-2013 11:08

[Профиль]  [ЛС] 

crash

Стаж: 6 лет 10 месяцев

Сообщений: 28

мне датский понравился, хорошая игра актёров. Этот бум судить как скачаю и посмотрю

Создавать темы 16-Июл-2013 17:27

[Профиль]  [ЛС] 

Sulaco

Стаж: 4 года 8 месяцев

Сообщений: 29

Sulaco,
Да? Когда я читал, все хвалили датский оригинал, мерзко отзываясь об этой версии...
ну, не знаю....)) оригинальную версию сериала я не смотрел) сравнить не с чем))
тут отзывы об американской версии: http://www.metacritic.com/tv/the-bridge-2013

Создавать темы 16-Июл-2013 20:04

[Профиль]  [ЛС] 

baburkhan

Стаж: 5 лет 10 месяцев

Сообщений: 22

Кто-нибудь может помочь скачать оригинальную версию сериала?
http://tas-ix.net/viewtopic.php?t=44866
Полного источника не было: Никогда

Создавать темы 21-Июл-2013 16:05

[Профиль]  [ЛС] 

saidali ®

Стаж: 5 лет 8 месяцев

Сообщений: 868

Симпатии: 554

Добавлена 2 серия

Создавать темы 22-Июл-2013 08:07

[Профиль]  [ЛС] 

saidali ®

Стаж: 5 лет 8 месяцев

Сообщений: 868

Симпатии: 554

Добавлена 3 серия

Создавать темы 28-Июл-2013 23:29

[Профиль]  [ЛС] 

saidali ®

Стаж: 5 лет 8 месяцев

Сообщений: 868

Симпатии: 554

Добавлена 4 серия

Создавать темы 04-Авг-2013 18:41

[Профиль]  [ЛС] 

saidali ®

Стаж: 5 лет 8 месяцев

Сообщений: 868

Симпатии: 554

Добавлена 5 серия

Создавать темы 11-Авг-2013 14:20

[Профиль]  [ЛС] 

saidali ®

Стаж: 5 лет 8 месяцев

Сообщений: 868

Симпатии: 554

Добавлена 6 серия

Создавать темы 18-Авг-2013 15:34

[Профиль]  [ЛС] 

saidali ®

Стаж: 5 лет 8 месяцев

Сообщений: 868

Симпатии: 554

Добавлена 7 серия

Создавать темы 27-Авг-2013 23:50

[Профиль]  [ЛС] 

saidali ®

Стаж: 5 лет 8 месяцев

Сообщений: 868

Симпатии: 554

Добавлена 8 серия

Создавать темы 05-Сен-2013 09:30

[Профиль]  [ЛС] 

saidali ®

Стаж: 5 лет 8 месяцев

Сообщений: 868

Симпатии: 554

Добавлена 9 серия

Создавать темы 10-Сен-2013 08:49

[Профиль]  [ЛС] 
Показать сообщения:    
Ответить на тему

Текущее время: 26-Сен 18:36

Часовой пояс: UTC + 5



Вы не можете начинать темы
Вы не можете отвечать на сообщения
Вы не можете редактировать свои сообщения
Вы не можете удалять свои сообщения
Вы не можете голосовать в опросах
Вы не можете прикреплять файлы к сообщениям
Вы не можете скачивать файлы