Море, солнце и никакого секса / Sea, No Sex and Sun (Кристоф Тюрпен) [2012 г., комедия, HDRip]

Ответить на тему
 

atgerkin ®

Стаж: 6 лет 9 месяцев

Сообщений: 247

Симпатии: 78

Море, солнце и никакого секса / Sea, No Sex and Sun-- Год выпуска: 2012
Страна: Франция / Quasar Pictures, Pathe, Jouror Productions
Жанр: комедия
Продолжительность: 01:28:37
Перевод: Профессиональный (многоголосый) [НТВ+] -Режиссер: Кристоф Тюрпен-В ролях: Фред Тесто, Антуан Дюлери, Жюли Ферье, Артюр Мазе, Армель Дойч, Анук Гринбер, Патрик Бушите, Альма Жодоровски, Дафне Шолле, Арно Прусак-Описание: На курорте в Бретани отдыхают трое мужчин. 20-летний Алекс наслаждается полной свободой. 35-летний Гийом вспоминает свой лучший отпуск в этих местах. А 50-летний Пьер приезжает сюда после развода- 
-Качество: HDRip
Формат: AVI
Видео кодек: XviD
Аудио кодек: AC3
Видео: 1812 kb/s, 720x304
Аудио: Russian / French: AC3, 192 kb/s (2 ch)

MI

Общее
Полное имя : More.solnce.i.nikakogo.seksa.2012.P.HDRip.1400Mb.avi
Формат : AVI
Формат/Информация : Audio Video Interleave
Размер файла : 1,37 Гбайт
Продолжительность : 1 ч. 28 м.
Общий поток : 2210 Кбит/сек
Программа кодирования : VirtualDubMod 1.5.10.3 | www.virtualdub-fr.org || (build 2550/release)
Библиотека кодирования : VirtualDubMod build 2550/release
Видео
Идентификатор : 0
Формат : MPEG-4 Visual
Профиль формата : Advanced [email protected]
Параметр BVOP формата : 2
Параметр QPel формата : Нет
Параметр GMC формата : Без точки перехода
Параметр матрицы формата : Выборочная
Идентификатор кодека : XVID
Идентификатор кодека/Подсказка : XviD
Продолжительность : 1 ч. 28 м.
Битрейт : 1812 Кбит/сек
Ширина : 720 пикселей
Высота : 304 пикселя
Соотношение сторон : 2,35:1
Частота кадров : 24,000 кадра/сек
Цветовое пространство : YUV
Субдискретизация насыщенности : 4:2:0
Битовая глубина : 8 бит
Тип развёртки : Прогрессивная
Метод сжатия : С потерями
Бит/(Пиксели*Кадры) : 0.345
Размер потока : 1,12 Гбайт (82%)
Библиотека кодирования : XviD 64
Аудио #1
Идентификатор : 1
Формат : AC-3
Формат/Информация : Audio Coding 3
Расширение режима : CM (complete main)
Параметр Endianness формата : Big
Идентификатор кодека : 2000
Продолжительность : 1 ч. 28 м.
Вид битрейта : Постоянный
Битрейт : 192 Кбит/сек
Каналы : 2 канала
Расположение каналов : Front: L R
Частота : 48,0 КГц
Битовая глубина : 16 бит
Метод сжатия : С потерями
Размер потока : 122 Мбайт (9%)
Выравнивание : Разделение по промежуткам
Продолжительность промежутка : 42 мс. (1,00 видеокадр)
Время предзагрузки промежутка : 500 мс.
Аудио #2
Идентификатор : 2
Формат : AC-3
Формат/Информация : Audio Coding 3
Расширение режима : CM (complete main)
Параметр Endianness формата : Big
Идентификатор кодека : 2000
Продолжительность : 1 ч. 28 м.
Вид битрейта : Постоянный
Битрейт : 192 Кбит/сек
Каналы : 2 канала
Расположение каналов : Front: L R
Частота : 48,0 КГц
Битовая глубина : 16 бит
Метод сжатия : С потерями
Размер потока : 122 Мбайт (9%)
Выравнивание : Разделение по промежуткам
Продолжительность промежутка : 42 мс. (1,00 видеокадр)
Время предзагрузки промежутка : 500 мс.

Скриншоты




Создавать темы 16-Июл-2013 21:31

[Профиль]  [ЛС] 
Показать сообщения:    
Ответить на тему

Текущее время: 25-Сен 13:10

Часовой пояс: UTC + 5



Вы не можете начинать темы
Вы не можете отвечать на сообщения
Вы не можете редактировать свои сообщения
Вы не можете удалять свои сообщения
Вы не можете голосовать в опросах
Вы не можете прикреплять файлы к сообщениям
Вы не можете скачивать файлы