Зловещие мертвецы: Черная книга / Evil Dead (Федерико Альварес) [2013 г., Ужасы, BDRip-AVC] [лицензия]

Ответить на тему
 

ZeroX ®

Стаж: 5 лет 7 месяцев

Сообщений: 146

Симпатии: 3

Зловещие Мертвецы: Черная Книга
«Уже не остановить»
-
Год выпуска: 2013
Страна: США
Режиссер: Федерико Альварес
Жанр: Ужасы
Продолжительность: 1:31:18
Перевод: Профессиональный (полное дублирование)|[Лицензия]
Субтитры: Присутствуют (Вшитые Отключаемые)(Английские + Русские)-В ролях: Джейн Леви, Шайло Фернандес, Лу Тэйлор Пуччи, Джессика Лукас, Элизабет Блэкмор, Феникс Коннолли, Джим МакЛарти, Сиан Дэвис, Стефен Баттерворф, Карл Виллетц-Описание: Главный герой отвозит свою младшую сестру в лесной домик для того, чтобы помочь ей избавиться от наркотической зависимости. Оказавшись без «дури», девушка буквально сходит с ума, из-за чего становится невозможно определить, почему она ведет себя именно так: из-за ломки или же благодаря деятельности обитателей «Книги мертвых». Особенно после того, как один из ее приятелей прочел вслух отрывок из этой самой книги.-Рейтинги:
  • КиноПоиск.Ru 6.400 (9 479)
  • IMDb.com: 7.0 (15 723)
  • MPAA: лицам до 17 лет обязательно присутствие взрослого
-Качество: BDRip-AVC
Формат: MKV
Видео кодек: x264
Аудио кодек: AC3
Видео: AVC, 1108x464(2.40:1), 2 531 Kbps, 23.976 fps
Аудио #1: AC3, 48.0 KHz, 448 Kbps, 6ch | Профессиональный (Полное Дублирование)(Лицензия)
Аудио #2: AC3, 48.0 KHz, 448 Kbps, 6ch | Авторский (А.Карповский)(Рекомендуется)
Аудио #3: AC3, 48.0 KHz, 448 Kbps, 6ch | Оригинал

M.I

Format                                   : Matroska
Format version                           : Version 4 / Version 2
File size                                : 2.47 GiB
Duration                                 : 1h 31mn
Overall bit rate                         : 3 876 Kbps
Movie name                               : Evil Dead ReRip by ZeroX
Encoded date                             : UTC 2013-07-18 06:15:42
Writing application                      : mkvmerge v6.3.0 ('You can't stop me!') built on Jun 28 2013 20:09:41
Writing library                          : libebml v1.3.0 + libmatroska v1.4.0
Video
ID                                       : 1
Format                                   : AVC
Format/Info                              : Advanced Video Codec
Format profile                           : [email protected]
Format settings, CABAC                   : Yes
Format settings, ReFrames                : 15 frames
Codec ID                                 : V_MPEG4/ISO/AVC
Duration                                 : 1h 31mn
Bit rate                                 : 2 531 Kbps
Width                                    : 1 108 pixels
Height                                   : 464 pixels
Display aspect ratio                     : 2.40:1
Frame rate mode                          : Constant
Frame rate                               : 23.976 fps
Color space                              : YUV
Chroma subsampling                       : 4:2:0
Bit depth                                : 8 bits
Scan type                                : Progressive
Bits/(Pixel*Frame)                       : 0.205
Stream size                              : 1.57 GiB (63%)
Title                                    : Evil Dead
Writing library                          : x264 core 125 r2208 d9d2288
Encoding settings                        : cabac=1 / ref=15 / deblock=1:-2:-2 / analyse=0x3:0x133 / me=umh / subme=11 / psy=1 / psy_rd=1.05:0.05 / mixed_ref=1 / me_range=32 / chroma_me=1 / trellis=2 / 8x8dct=1 / cqm=0 / deadzone=21,11 / fast_pskip=0 / chroma_qp_offset=-3 / threads=9 / lookahead_threads=1 / sliced_threads=0 / nr=0 / decimate=1 / interlaced=0 / bluray_compat=0 / constrained_intra=0 / bframes=16 / b_pyramid=2 / b_adapt=2 / b_bias=0 / direct=3 / weightb=1 / open_gop=0 / weightp=2 / keyint=240 / keyint_min=23 / scenecut=40 / intra_refresh=0 / rc_lookahead=150 / rc=2pass / mbtree=1 / bitrate=2531 / ratetol=1.0 / qcomp=0.70 / qpmin=0 / qpmax=69 / qpstep=4 / cplxblur=20.0 / qblur=0.5 / vbv_maxrate=20000 / vbv_bufsize=25000 / nal_hrd=none / ip_ratio=1.35 / aq=1:0.70
Language                                 : English
Default                                  : Yes
Forced                                   : No
Audio #1
ID                                       : 2
Format                                   : AC-3
Format/Info                              : Audio Coding 3
Mode extension                           : CM (complete main)
Format settings, Endianness              : Big
Codec ID                                 : A_AC3
Duration                                 : 1h 31mn
Bit rate mode                            : Constant
Bit rate                                 : 448 Kbps
Channel(s)                               : 6 channels
Channel positions                        : Front: L C R, Side: L R, LFE
Sampling rate                            : 48.0 KHz
Bit depth                                : 16 bits
Compression mode                         : Lossy
Stream size                              : 293 MiB (12%)
Title                                    : Лицензия
Language                                 : Russian
Default                                  : Yes
Forced                                   : No
Audio #2
ID                                       : 3
Format                                   : AC-3
Format/Info                              : Audio Coding 3
Mode extension                           : CM (complete main)
Format settings, Endianness              : Big
Codec ID                                 : A_AC3
Duration                                 : 1h 31mn
Bit rate mode                            : Constant
Bit rate                                 : 448 Kbps
Channel(s)                               : 6 channels
Channel positions                        : Front: L C R, Side: L R, LFE
Sampling rate                            : 48.0 KHz
Bit depth                                : 16 bits
Compression mode                         : Lossy
Stream size                              : 293 MiB (12%)
Title                                    : А.Карповский
Language                                 : Russian
Default                                  : No
Forced                                   : No
Audio #3
ID                                       : 4
Format                                   : AC-3
Format/Info                              : Audio Coding 3
Mode extension                           : CM (complete main)
Format settings, Endianness              : Big
Codec ID                                 : A_AC3
Duration                                 : 1h 31mn
Bit rate mode                            : Constant
Bit rate                                 : 448 Kbps
Channel(s)                               : 6 channels
Channel positions                        : Front: L C R, Side: L R, LFE
Sampling rate                            : 48.0 KHz
Bit depth                                : 16 bits
Compression mode                         : Lossy
Stream size                              : 293 MiB (12%)
Title                                    : Оригинал
Language                                 : English
Default                                  : No
Forced                                   : No
Text #1
ID                                       : 5
Format                                   : UTF-8
Codec ID                                 : S_TEXT/UTF8
Codec ID/Info                            : UTF-8 Plain Text
Language                                 : English
Default                                  : No
Forced                                   : No
Text #2
ID                                       : 6
Format                                   : UTF-8
Codec ID                                 : S_TEXT/UTF8
Codec ID/Info                            : UTF-8 Plain Text
Language                                 : Russian
Default                                  : No
Forced                                   : No

Скриншоты

Создавать темы 18-Июл-2013 12:08

[Профиль]  [ЛС] 

ZeroX ®

Стаж: 5 лет 7 месяцев

Сообщений: 146

Симпатии: 3

Robot-IX, спасибо вам что помогаете с раздачей.

Создавать темы 19-Июл-2013 08:52

[Профиль]  [ЛС] 

TOBOLIUS

Стаж: 5 лет 10 месяцев

Сообщений: 115

Симпатии: 8

ZeroX, Спасибо за релиз

Создавать темы 19-Июл-2013 09:39

[Профиль]  [ЛС] 

Robot-IX

Стаж: 5 лет 7 месяцев

Сообщений: 223

Симпатии: 9

Robot-IX, спасибо вам что помогаете с раздачей.
ok ))

Создавать темы 19-Июл-2013 11:11

[Профиль]  [ЛС] 

zverblackboxfinder

Стаж: 4 года 1 месяц

Сообщений: 31

Симпатии: 1

Проста нет слов. Классный фильм ai

Создавать темы 29-Ноя-2013 22:44

[Профиль]  [ЛС] 

zverblackboxfinder

Стаж: 4 года 1 месяц

Сообщений: 31

Симпатии: 1

немного осталось дайте скорость

Создавать темы 05-Дек-2013 11:57

[Профиль]  [ЛС] 
Показать сообщения:    
Ответить на тему

Текущее время: 19-Ноя 04:23

Часовой пояс: UTC + 5



Вы не можете начинать темы
Вы не можете отвечать на сообщения
Вы не можете редактировать свои сообщения
Вы не можете удалять свои сообщения
Вы не можете голосовать в опросах
Вы не можете прикреплять файлы к сообщениям
Вы не можете скачивать файлы