Бродяга / The Rambler (Кэлвин Ридер) [2013 г., ужасы, драма, комедия, детектив, HDRip]

Ответить на тему
 

Jentelman ®

Стаж: 5 лет 11 месяцев

Сообщений: 48

Бродяга / The Rambler -
Год выпуска: 2013
Страна: США
Жанр: ужасы, драма, комедия, детектив
Продолжительность: 01:38:44
Перевод: Любительский (одноголосый) [den904]- Режиссер: Кэлвин Ридер- В ролях: Дермот Малруни, Линдсей Палсифер, Наташа Лионн, Джеймс Кэди,
Scott Sharot, Пол Блотт, Робин Рид, Кристофер Демпси, Кэрри Лазар, Фран Мартоне- Описание: Выйдя из тюрьмы, человек по кличке Бродяга, отправляется в странное путешествие для того, чтобы воссоединиться с родным братом, которого когда-то давно потерял.- Качество: HDRip
Формат: AVI
Видео кодек: XviD
Аудио кодек: AC3
Видео: 720x304 (2.37:1), 23.976 fps, XviD build 73 ~2059 kbps avg, 0.39 bit/pixel
Аудио: 48 kHz, AC3 Dolby Digital, 3/2 (L,C,R,l,r) + LFE ch, ~448 kbps , Русский / Английский
-

MI

General
Format : AVI
Format/Info : Audio Video Interleave
Format profile : OpenDML
File size : 2.05 GiB
Duration : 1h 38mn
Overall bit rate : 2 973 Kbps
Movie name : The.Rambler.2013.XviD.HDRip
Director : Odessit
Writing application : VirtualDubMod 1.5.10.3 (build 2550/release)
Writing library : VirtualDubMod build 2550/release
Video
ID : 0
Format : MPEG-4 Visual
Format profile : Advanced [email protected]
Format settings, BVOP : 1
Format settings, QPel : No
Format settings, GMC : No warppoints
Format settings, Matrix : Custom
Codec ID : XVID
Codec ID/Hint : XviD
Duration : 1h 38mn
Bit rate : 2 059 Kbps
Width : 720 pixels
Height : 304 pixels
Display aspect ratio : 2.35:1
Frame rate : 23.976 fps
Color space : YUV
Chroma subsampling : 4:2:0
Bit depth : 8 bits
Scan type : Progressive
Compression mode : Lossy
Bits/(Pixel*Frame) : 0.392
Stream size : 1.42 GiB (69%)
Writing library : XviD 73
Audio #1
ID : 1
Format : AC-3
Format/Info : Audio Coding 3
Mode extension : CM (complete main)
Format settings, Endianness : Big
Codec ID : 2000
Duration : 1h 38mn
Bit rate mode : Constant
Bit rate : 448 Kbps
Channel(s) : 6 channels
Channel positions : Front: L C R, Side: L R, LFE
Sampling rate : 48.0 KHz
Bit depth : 16 bits
Compression mode : Lossy
Stream size : 316 MiB (15%)
Alignment : Split accross interleaves
Interleave, duration : 42 ms (1.00 video frame)
Interleave, preload duration : 500 ms
Audio #2
ID : 2
Format : AC-3
Format/Info : Audio Coding 3
Mode extension : CM (complete main)
Format settings, Endianness : Big
Codec ID : 2000
Duration : 1h 38mn
Bit rate mode : Constant
Bit rate : 448 Kbps
Channel(s) : 6 channels
Channel positions : Front: L C R, Side: L R, LFE
Sampling rate : 48.0 KHz
Bit depth : 16 bits
Compression mode : Lossy
Stream size : 316 MiB (15%)
Alignment : Split accross interleaves
Interleave, duration : 42 ms (1.00 video frame)
Interleave, preload duration : 500 ms

Скриншоты






Последний раз редактировалось: Jentelman (2013-07-19 06:18), всего редактировалось 1 раз

Создавать темы 19-Июл-2013 00:27

[Профиль]  [ЛС] 

Jentelman ®

Стаж: 5 лет 11 месяцев

Сообщений: 48

Извините за задержку, вчера света вырубили(((

Создавать темы 19-Июл-2013 03:42

[Профиль]  [ЛС] 

Rasul

Стаж: 5 лет 10 месяцев

Сообщений: 100

Симпатии: 6

Jentelman, понимаю вас....

Создавать темы 19-Июл-2013 06:23

[Профиль]  [ЛС] 

SeabiscuiT

Стаж: 4 года 9 месяцев

Сообщений: 56

Симпатии: 4

:bb: :bb:


Последний раз редактировалось: SeabiscuiT (2013-07-24 17:20), всего редактировалось 3 раз(а)

Создавать темы 19-Июл-2013 11:58

[Профиль]  [ЛС] 

Espucho

Стаж: 5 лет 10 месяцев

Сообщений: 37

SeabiscuiT,
Перевод: Любительский (одноголосый) [den904]

Создавать темы 19-Июл-2013 12:25

[Профиль]  [ЛС] 

Espucho

Стаж: 5 лет 10 месяцев

Сообщений: 37

Jentelman, оригинал нету???

Создавать темы 19-Июл-2013 12:27

[Профиль]  [ЛС] 

SeabiscuiT

Стаж: 4 года 9 месяцев

Сообщений: 56

Симпатии: 4

SeabiscuiT,
Перевод: Любительский (одноголосый) [den904]
мой файл с иностранного торрента...поэтому оригинальный

Создавать темы 19-Июл-2013 12:35

[Профиль]  [ЛС] 

SeabiscuiT

Стаж: 4 года 9 месяцев

Сообщений: 56

Симпатии: 4

Jentelman, оригинал нету???[/quote
pc


Последний раз редактировалось: SeabiscuiT (2013-07-24 17:22), всего редактировалось 1 раз

Создавать темы 19-Июл-2013 12:37

[Профиль]  [ЛС] 

Jentelman ®

Стаж: 5 лет 11 месяцев

Сообщений: 48

Неее оргинала пока нету, тока так

Создавать темы 19-Июл-2013 19:19

[Профиль]  [ЛС] 

DeFenDer007

Стаж: 4 года 5 месяцев

Сообщений: 191

Симпатии: 9

у всех 47 % ??

_________________
Подпись отключена за нарушение правил форума

Создавать темы 22-Июл-2013 11:29

[Профиль]  [ЛС] 

efremenko_ser

Стаж: 7 лет 3 месяца

Сообщений: 99

Симпатии: 4

Изачем мучить людей если раздать не можешь???!!!

Создавать темы 22-Июл-2013 14:05

[Профиль]  [ЛС] 

FaBR1

Стаж: 6 лет 10 месяцев

Сообщений: 30

Зачетное оформление, за это-стоит качать.

Создавать темы 22-Июл-2013 17:37

[Профиль]  [ЛС] 

SeabiscuiT

Стаж: 4 года 9 месяцев

Сообщений: 56

Симпатии: 4

Jentelman,
mb


Последний раз редактировалось: SeabiscuiT (2013-08-21 21:43), всего редактировалось 1 раз

Создавать темы 22-Июл-2013 17:39

[Профиль]  [ЛС] 

nodick

Стаж: 7 лет

Сообщений: 12

Симпатии: 2

почему нет раздачи зачем ставить если не раздаете у всех 53 процента скачано

Создавать темы 01-Авг-2013 01:42

[Профиль]  [ЛС] 

Jentelman ®

Стаж: 5 лет 11 месяцев

Сообщений: 48

Ребята у меня около недели тел. сеть не работал... из за этого неполадки в сети появляется.
Раздача понятное дело, даже не могу скачивать(((
Поймите правильно линия у меня не оптика, но при проверки скорости, скорость отдачи показывало ~800kb/sek

Создавать темы 04-Авг-2013 00:42

[Профиль]  [ЛС] 
Показать сообщения:    
Ответить на тему

Текущее время: 12-Дек 13:28

Часовой пояс: UTC + 5



Вы не можете начинать темы
Вы не можете отвечать на сообщения
Вы не можете редактировать свои сообщения
Вы не можете удалять свои сообщения
Вы не можете голосовать в опросах
Вы не можете прикреплять файлы к сообщениям
Вы не можете скачивать файлы