Санаторий / Sanitarium (Брайан Ортиз, Брайан Рамирез, Керри Вальдеррама) [2013 г., триллер, DVDRip]

Ответить на тему
 

atgerkin ®

Стаж: 6 лет 10 месяцев

Сообщений: 247

Симпатии: 78

Санаторий / Sanitarium-- Год выпуска: 2013
Страна: США
Жанр: триллер
Продолжительность: 01:47:42
Перевод: Профессиональный (многоголосый)-Режиссер: Брайан Ортиз, Брайан Рамирез, Керри Вальдеррама-В ролях: Малкольм МакДауэлл, Лу Даймонд Филлипс, Джон Гловер, Роберт Инглунд, Дэвид Мазоуз, Лейси Чаберт, Крис Малки, Майра Лил, Нова Кларк, Брант Бамперс-Описание: Перед нами антология, состоящая из трех получасовых историй, происходящих в психушке. Каждый эпизод начинается с вступительного слова доктора Стенсон, лечащего врача, комментирующего недавний приход нового пациента со словами: «История человека начинается».- 
-Качество: DVDRip
Формат: AVI
Видео кодек: XviD
Аудио кодек: AC3
Видео: XviD, 1359 Кбит/с, 624x304
Аудио: AC3, 6 ch, 448 Кбит/с

MI

Общее
Полное имя : Sanatoriy.2013.P.DVDRip.1400Mb.INTERCINEMA.avi
Формат : AVI
Формат/Информация : Audio Video Interleave
Размер файла : 1,37 Гбайт
Продолжительность : 1 ч. 47 м.
Общий поток : 1817 Кбит/сек
Программа кодирования : VirtualDubMod 1.5.10.2 (build 2540/release)
Библиотека кодирования : VirtualDubMod build 2540/release
Видео
Идентификатор : 0
Формат : MPEG-4 Visual
Профиль формата : Advanced [email protected]
Параметр BVOP формата : 1
Параметр QPel формата : Нет
Параметр GMC формата : Без точки перехода
Параметр матрицы формата : Default (H.263)
Режим смешивания : Сжатый битовый поток
Идентификатор кодека : XVID
Идентификатор кодека/Подсказка : XviD
Продолжительность : 1 ч. 47 м.
Битрейт : 1359 Кбит/сек
Ширина : 624 пикселя
Высота : 304 пикселя
Соотношение сторон : 2,053
Частота кадров : 25,000 кадров/сек
Цветовое пространство : YUV
Субдискретизация насыщенности : 4:2:0
Битовая глубина : 8 бит
Тип развёртки : Прогрессивная
Метод сжатия : С потерями
Бит/(Пиксели*Кадры) : 0.287
Размер потока : 1,02 Гбайт (75%)
Библиотека кодирования : XviD 1.2.1 (UTC 2008-12-04)
Аудио
Идентификатор : 1
Формат : AC-3
Формат/Информация : Audio Coding 3
Расширение режима : CM (complete main)
Параметр Endianness формата : Big
Идентификатор кодека : 2000
Продолжительность : 1 ч. 47 м.
Вид битрейта : Постоянный
Битрейт : 448 Кбит/сек
Каналы : 6 каналов
Расположение каналов : Front: L C R, Side: L R, LFE
Частота : 48,0 КГц
Битовая глубина : 16 бит
Метод сжатия : С потерями
Размер потока : 345 Мбайт (25%)
Выравнивание : Разделение по промежуткам
Продолжительность промежутка : 40 мс. (1,00 видеокадр)
Время предзагрузки промежутка : 500 мс.

Скриншоты





Создавать темы 19-Июл-2013 09:02

[Профиль]  [ЛС] 

jeck6366

Стаж: 6 лет 6 месяцев

Сообщений: 6

удалите 3-ой скрин!!

Создавать темы 19-Июл-2013 10:27

[Профиль]  [ЛС] 

Dem.Eloev

Стаж: 4 года 7 месяцев

Сообщений: 13

Симпатии: 4

удалите 3-ой скрин!!
А я за прямоту. Чего уж здесь такого, это естество, да и в красивых формах. Скажем "нет" цензуре хотя бы в интернете!

Создавать темы 19-Июл-2013 11:07

[Профиль]  [ЛС] 

sverchic

Стаж: 5 лет 5 месяцев

Сообщений: 43

кто смотрел , как фильм ? отпишитесь ...

Создавать темы 19-Июл-2013 20:53

[Профиль]  [ЛС] 

vasya

Стаж: 5 лет 1 месяц

Сообщений: 32

я согласен с Dem.Eloev

Создавать темы 19-Июл-2013 21:19

[Профиль]  [ЛС] 

ivan.ishmakov

Стаж: 5 лет 1 месяц

Сообщений: 51

Симпатии: 20

sverchic, фильм тяжеловат...не для обычного зрителя. скажу честно досмотрел до половины

Создавать темы 19-Июл-2013 22:01

[Профиль]  [ЛС] 

suicide

Стаж: 4 года 11 месяцев

Сообщений: 18

удалите 3-ой скрин!!
я только из за него качать начал (:

Создавать темы 19-Июл-2013 22:06

[Профиль]  [ЛС] 

sverchic

Стаж: 5 лет 5 месяцев

Сообщений: 43

sverchic, фильм тяжеловат...не для обычного зрителя. скажу честно досмотрел до половины
Спасибо. Мне тоже не понравился. Дебильный и нудный фильм. Пытались сделать шедевр, а получилось как всегда! Три режиссёра , а толку то! Удалил. Если честно, фильмы также как и товары в магазине : есть дорогие и качественные, а есть дешёвые и дерьмовые ; за счёт рекламы иногда удаётся обмануть зрителя. Короче, как всегда.
ИМХО : потеря нашего с вами драгоценного времени ! pc
Насчёт 3-го скрина : он совершенно не в контексте фильма, ни к селу , ни к городу. Всё равно как танк на пляже. aq

Создавать темы 20-Июл-2013 02:16

[Профиль]  [ЛС] 

Zzz666

Стаж: 6 лет 11 месяцев

Сообщений: 65

Симпатии: 4

Подскажите кто-нибудь, что за трэк играет в титрах?

Создавать темы 20-Июл-2013 20:53

[Профиль]  [ЛС] 

vitamaks7

Стаж: 5 лет 7 месяцев

Сообщений: 34

Симпатии: 2

СПС автору класс Фильмы

Создавать темы 21-Июл-2013 09:28

[Профиль]  [ЛС] 

IQBOT

Стаж: 6 лет 8 месяцев

Сообщений: 449

Симпатии: 81

Подскажите кто-нибудь, что за трэк играет в титрах?
Pop Pistol - Coyote

Создавать темы 21-Июл-2013 15:38

[Профиль]  [ЛС] 

Rasul

Стаж: 5 лет 8 месяцев

Сообщений: 100

Симпатии: 6

sverchic, да ты абсолютно правь.......

Создавать темы 23-Июл-2013 21:02

[Профиль]  [ЛС] 

Zzz666

Стаж: 6 лет 11 месяцев

Сообщений: 65

Симпатии: 4

Подскажите кто-нибудь, что за трэк играет в титрах?
Pop Pistol - Coyote
Не подскажешь где можно эту песню качнуть?

Создавать темы 28-Июл-2013 07:34

[Профиль]  [ЛС] 

MajO_oR

Стаж: 4 года 7 месяцев

Сообщений: 5

Подскажите кто-нибудь, что за трэк играет в титрах?
Pop Pistol - Coyote
Не подскажешь где можно эту песню качнуть?
На tas ix не нашел нигде если только рунета : zaycev.net zvukoff.ru

Создавать темы 28-Июл-2013 11:01

[Профиль]  [ЛС] 

Zzz666

Стаж: 6 лет 11 месяцев

Сообщений: 65

Симпатии: 4

Подскажите кто-нибудь, что за трэк играет в титрах?
Pop Pistol - Coyote
Не подскажешь где можно эту песню качнуть?
На tas ix не нашел нигде если только рунета : zaycev.net zvukoff.ru
Спасибо, уже нашел. По ходу группа малоизвестная.

Создавать темы 28-Июл-2013 12:48

[Профиль]  [ЛС] 
Показать сообщения:    
Ответить на тему

Текущее время: 18-Окт 05:26

Часовой пояс: UTC + 5



Вы не можете начинать темы
Вы не можете отвечать на сообщения
Вы не можете редактировать свои сообщения
Вы не можете удалять свои сообщения
Вы не можете голосовать в опросах
Вы не можете прикреплять файлы к сообщениям
Вы не можете скачивать файлы