Я очень возбужден / Los amantes pasajeros (Педро Альмодовар) [2013 г., комедия, HDRip][Лицензия]

Страницы :  1, 2  След.

Тема закрыта
 

Sunnat1999 ®

Стаж: 4 года 9 месяцев

Сообщений: 756

Симпатии: 416

Я очень возбужден / Los amantes pasajeros-- Год выпуска: 2013
Страна: Испания / El Deseo S.A
Жанр: комедия
Продолжительность: 01:25:15
Перевод: Дублированное [Лицензия]--Режиссер: Педро Альмодовар-В ролях: Антонио Бандерас, Пенелопа Крус, Коте Солер, Антонио де ла Торре, Уго Силва, Мигель Анхель Сильвестре, Лайя Марти, Хавьер Камара, Карлос Аресес, Рауль Аревало-Описание: Рейс лайнера, совершающего перелет в Мексику, начался как обычно: пассажиры пристегнули ремни, а командир корабля, включив автопилот, спокойно уснул. Но прямо над океаном оказалось, что самолет неисправен, исчезает интернет, и все гаджеты разом выходят из строя. Всех охватывает страх, ужас, отчаяние. Беспомощные пассажиры и экипаж, оказавшись пред лицом гибели, наконец-то должны стать сами собой. Так что несчастным на борту падающего самолета не остается ничего, как только петь и танцевать вслед за веселыми стюардами.-Доп. информация:  
-Качество: HDRip
Формат: AVI
Видео кодек: XviD
Аудио кодек: AC3
Видео: 1900 kb/s, 720x384
Аудио: AC3, 384 kb/s (6 ch)

MI

Общее
Полное имя : Ja.ochen.vozbuzhden.2013.D.HDRip.1400MB.avi
Формат : AVI
Формат/Информация : Audio Video Interleave
Размер файла : 1,37 Гбайт
Продолжительность : 1 ч. 25 м.
Общий поток : 2294 Кбит/сек
Программа кодирования : VirtualDubMod 1.5.10.2 (build 2540/release)
Библиотека кодирования : VirtualDubMod build 2540/release
Видео
Идентификатор : 0
Формат : MPEG-4 Visual
Профиль формата : Advanced [email protected]
Параметр BVOP формата : 2
Параметр QPel формата : Нет
Параметр GMC формата : Без точки перехода
Параметр матрицы формата : Default (MPEG)
Идентификатор кодека : XVID
Идентификатор кодека/Подсказка : XviD
Продолжительность : 1 ч. 25 м.
Битрейт : 1901 Кбит/сек
Ширина : 720 пикселей
Высота : 384 пикселя
Соотношение сторон : 1,85:1
Частота кадров : 25,000 кадров/сек
Цветовое пространство : YUV
Субдискретизация насыщенности : 4:2:0
Битовая глубина : 8 бит
Тип развёртки : Прогрессивная
Метод сжатия : С потерями
Бит/(Пиксели*Кадры) : 0.275
Размер потока : 1,13 Гбайт (83%)
Библиотека кодирования : XviD 1.2.1 (UTC 2008-12-04)
Аудио
Идентификатор : 1
Формат : AC-3
Формат/Информация : Audio Coding 3
Расширение режима : CM (complete main)
Параметр Endianness формата : Big
Идентификатор кодека : 2000
Продолжительность : 1 ч. 25 м.
Вид битрейта : Постоянный
Битрейт : 384 Кбит/сек
Каналы : 6 каналов
Расположение каналов : Front: L C R, Side: L R, LFE
Частота : 48,0 КГц
Битовая глубина : 16 бит
Метод сжатия : С потерями
Размер потока : 234 Мбайт (17%)
Выравнивание : Разделение по промежуткам
Продолжительность промежутка : 40 мс. (1,00 видеокадр)
Время предзагрузки промежутка : 500 мс.

Скриншоты







Последний раз редактировалось: Sunnat1999 (2013-07-20 17:12), всего редактировалось 2 раз(а)

Создавать темы 19-Июл-2013 18:48

[Профиль]  [ЛС] 

ndoni94

Стаж: 6 лет 11 месяцев

Сообщений: 8

+ скока?

Создавать темы 19-Июл-2013 19:20

[Профиль]  [ЛС] 

Alex Dancer

Стаж: 5 лет 10 месяцев

Сообщений: 181

Симпатии: 21

Хм... на "киномане" рейтинг фильма 6.876 (1756) IMDb: 5.70 (3 977)
А рецензии диаметрально противоположны. Но всё же положительных больше. Фильм стОит скачать и заценить самому. Всё-таки это Альмодовар

Создавать темы 20-Июл-2013 00:17

[Профиль]  [ЛС] 

rsanjar

Стаж: 6 лет 9 месяцев

Сообщений: 32

Симпатии: 3

Посмотрел фильм. Всегда восхищался Педро Альмодоваром, но этот фильм - ничто иное, как пропаганда Пи.....зма!!! ИМХО. Педро - ты реально стареешь:)

Создавать темы 20-Июл-2013 04:00

[Профиль]  [ЛС] 

shahz

Стаж: 5 лет 9 месяцев

Сообщений: 192

Симпатии: 9

Посмотрел фильм. Всегда восхищался Педро Альмодоваром, но этот фильм - ничто иное, как пропаганда Пи.....зма!!! ИМХО. Педро - ты реально стареешь:)
Что, там мальчик+мальчик?
Судя по последнему скрину, фильм из цикла противная комедия.

Создавать темы 20-Июл-2013 04:15

[Профиль]  [ЛС] 

rsanjar

Стаж: 6 лет 9 месяцев

Сообщений: 32

Симпатии: 3

shahz, mann gegen mann!!! Это не просто противная, а тошнотворное подобие комедии.ИМХО.

Создавать темы 20-Июл-2013 19:22

[Профиль]  [ЛС] 

sverchic

Стаж: 5 лет 6 месяцев

Сообщений: 43

Терпения хватило на первые 10 мин, потом удалил фильм. ca

Создавать темы 20-Июл-2013 22:02

[Профиль]  [ЛС] 

shahz

Стаж: 5 лет 9 месяцев

Сообщений: 192

Симпатии: 9

хорошо что не скачал. Но из-за названия фильма еще будет мноооого жедающих скачать фильм.

Создавать темы 20-Июл-2013 23:04

[Профиль]  [ЛС] 

serj777

Стаж: 4 года 4 месяца

Сообщений: 59

Симпатии: 3

АА..... тошнотворная комедия! Фу Уроды!

Создавать темы 21-Июл-2013 03:36

[Профиль]  [ЛС] 

atgerkin

Стаж: 6 лет 11 месяцев

Сообщений: 247

Симпатии: 78

хорошо что не скачал. Но из-за названия фильма еще будет мноооого жедающих скачать фильм.
Чему удивляетесь?
Скачать к примеру "Семейный уик-энд" меньше желающих, чем "Я очень возбужден"
По поводу фильма:
Действительно весь экипаж самолёта пидоры, но среди пассажиров (по крайней мере неспящих) все гетеросексуалы.
Далее мальчик+мальчик сцен нет, но есть, мне помнится, две сцены мальчик+девочка
P.S. Хотя там нет оголённых участков тел, смотреть с детьми не советую.

Создавать темы 21-Июл-2013 11:26

[Профиль]  [ЛС] 

SAN4ES

Стаж: 5 лет 2 месяца

Сообщений: 19

неееее чушь какая то.................отстой..........

Создавать темы 21-Июл-2013 12:57

[Профиль]  [ЛС] 

roven

Стаж: 5 лет 9 месяцев

Сообщений: 16

Симпатии: 5

Думал фильм с Бандерасом нормальный будет, а он там просто для галочки. А так весь фильм, тупая комедия, ИМХО.

Создавать темы 23-Июл-2013 12:29

[Профиль]  [ЛС] 

Rasul

Стаж: 5 лет 10 месяцев

Сообщений: 100

Симпатии: 6

блин а я уже половину скачал.....

Создавать темы 23-Июл-2013 20:59

[Профиль]  [ЛС] 

SeabiscuiT

Стаж: 4 года 8 месяцев

Сообщений: 56

Симпатии: 4

наверно, это была предсмертная агония Альмодовара... :(

Создавать темы 27-Июл-2013 09:21

[Профиль]  [ЛС] 

Volk

Стаж: 4 года 9 месяцев

Сообщений: 27

Симпатии: 1

Вот вот, нагло пропагандируют стать пидорастами, это - не фильм а просто гоВно!!! Суннат1999 думаю ты тоже один из них, педераст! Каким пидором нужно быть чтоб такой фильм раздавать?! (готов бану, модеры извините не смог сдержать себя)
Не ожидал что Бандерос так сильно опустится!

Создавать темы 06-Авг-2013 17:02

[Профиль]  [ЛС] 
Показать сообщения:    
Тема закрыта

Текущее время: 23-Ноя 21:40

Часовой пояс: UTC + 5



Вы не можете начинать темы
Вы не можете отвечать на сообщения
Вы не можете редактировать свои сообщения
Вы не можете удалять свои сообщения
Вы не можете голосовать в опросах
Вы не можете прикреплять файлы к сообщениям
Вы не можете скачивать файлы