Рожденные на воле / Born to Be Wild (Дэвид Ликли) [2011 г., документальный, BDRip] DVO

Ответить на тему
 

rsanjar ®

Стаж: 6 лет 10 месяцев

Сообщений: 32

Симпатии: 3

Рожденные на воле / Born to Be Wild
Год выпуска: 2011
Страна: США
Жанр: документальный
Продолжительность: 00:40:46
Перевод: Профессиональный (Двухголосый закадровый) студия "Омикрон"
Субтитры: НЕТ
Режиссер: Дэвид Ликли
В ролях: Морган Фриман, Бируте Галдикас, Дафна Шелдрик
Описание: Две удивительные и трогательные истории о том, как осиротевшие дикие животные растут, готовясь к взрослой жизни, при преданной поддержке неординарных людей. В тропических лесах Борнео знаменитый приматолог доктор Бирут Гальдикас занимается реабилитацией детёныша орангутанов, а на засушливых саваннах Кении зоолог Дэйм Дафна Шелдрик помогает слонёнку вернуться обратно в дикую природу.

Качество: BDRip
Формат: MKV

Формат 3D: Anamorph OverUnder / Вертикальная анаморфная стереопара
Приоритет ракурса: ЛЕВЫЙ

Видео кодек: x264
Аудио кодек: AC3
Видео: AVC, 1920x1080, 23.976 кадр/сек, 21,5 Мбит/сек
Аудио1: русский; AC3, 5.1, 640 Кбит/сек, 48,0 КГц
Аудио2 английский; AC3, 5.1, 640 Кбит/сек, 48,0 КГц

Скриншоты



Mediainfo

General
Unique ID : 190416264720915128531885382496132664757 (0x8F40D6AF4E020CA28DB3D498EBC20DB5)
Complete name : D:\лучшие и 3D фильмы\3D MOVIES\IMAX.BornToBeWild.3D.2011.BD3DRip.Half.OU.x264.AC3.Rus.Eng.mkv
Format : Matroska
Format version : Version 2
File size : 6.64 GiB
Duration : 40mn 49s
Overall bit rate : 23.3 Mbps
Movie name : IMAX - Born to Be Wild by 3D-RuGroup
Encoded date : UTC 2012-04-22 15:18:45
Writing application : mkvmerge v3.4.0 ('Rapunzel') сборка от May 15 2010 09:38:20
Writing library : libebml v0.8.0 + libmatroska v0.9.0
Video
ID : 1
Format : AVC
Format/Info : Advanced Video Codec
Format profile : [email protected]
Format settings, CABAC : Yes
Format settings, ReFrames : 4 frames
Codec ID : V_MPEG4/ISO/AVC
Duration : 40mn 49s
Bit rate : 21.5 Mbps
Width : 1 920 pixels
Height : 1 080 pixels
Display aspect ratio : 16:9
Frame rate mode : Constant
Frame rate : 23.976 fps
Color space : YUV
Chroma subsampling : 4:2:0
Bit depth : 8 bits
Scan type : Progressive
Bits/(Pixel*Frame) : 0.433
Stream size : 6.14 GiB (93%)
Title : IMAX - Born to Be Wild (2011) Blu-ray 3D rip by itsamna aka elephant aka AnTo}{@
Writing library : x264 core 116 r2074 2641b9e
Encoding settings : cabac=1 / ref=4 / deblock=1:-3:-3 / analyse=0x3:0x133 / me=umh / subme=9 / psy=1 / psy_rd=1.00:0.15 / mixed_ref=1 / me_range=16 / chroma_me=1 / trellis=2 / 8x8dct=1 / cqm=0 / deadzone=21,11 / fast_pskip=0 / chroma_qp_offset=-3 / threads=3 / sliced_threads=0 / nr=0 / decimate=1 / interlaced=0 / bluray_compat=0 / constrained_intra=0 / bframes=6 / b_pyramid=2 / b_adapt=2 / b_bias=0 / direct=3 / weightb=1 / open_gop=0 / weightp=2 / keyint=250 / keyint_min=23 / scenecut=40 / intra_refresh=0 / rc_lookahead=60 / rc=crf / mbtree=1 / crf=18.0 / qcomp=0.70 / qpmin=0 / qpmax=69 / qpstep=4 / vbv_maxrate=50000 / vbv_bufsize=50000 / crf_max=0.0 / nal_hrd=none / ip_ratio=1.40 / aq=1:0.70
Default : Yes
Forced : No
Audio #1
ID : 2
Format : AC-3
Format/Info : Audio Coding 3
Mode extension : CM (complete main)
Format settings, Endianness : Big
Codec ID : A_AC3
Duration : 40mn 49s
Bit rate mode : Constant
Bit rate : 640 Kbps
Channel(s) : 6 channels
Channel positions : Front: L C R, Side: L R, LFE
Sampling rate : 48.0 KHz
Bit depth : 16 bits
Compression mode : Lossy
Stream size : 187 MiB (3%)
Title : DVO студия "Омикрон"
Language : Russian
Default : Yes
Forced : No
Audio #2
ID : 3
Format : AC-3
Format/Info : Audio Coding 3
Mode extension : CM (complete main)
Format settings, Endianness : Big
Codec ID : A_AC3
Duration : 40mn 49s
Bit rate mode : Constant
Bit rate : 640 Kbps
Channel(s) : 6 channels
Channel positions : Front: L C R, Side: L R, LFE
Sampling rate : 48.0 KHz
Bit depth : 16 bits
Compression mode : Lossy
Stream size : 187 MiB (3%)
Title : Original
Language : English
Default : No
Forced : No
Menu
00:00:00.000 : :01
00:10:03.770 : :02
00:19:19.700 : :03
00:29:32.896 : :04
00:39:07.887 : :05


Последний раз редактировалось: rsanjar (2013-07-24 21:18), всего редактировалось 2 раз(а)

Создавать темы 24-Июл-2013 20:57

[Профиль]  [ЛС] 
Показать сообщения:    
Ответить на тему

Текущее время: 14-Дек 14:57

Часовой пояс: UTC + 5



Вы не можете начинать темы
Вы не можете отвечать на сообщения
Вы не можете редактировать свои сообщения
Вы не можете удалять свои сообщения
Вы не можете голосовать в опросах
Вы не можете прикреплять файлы к сообщениям
Вы не можете скачивать файлы