Судная ночь / The Purge (Джеймс ДеМонако / James DeMonaco) [2013, США, Франция, триллер, ужасы, WEB-DLRip] Dub

Страницы :  1, 2, 3  След.

Ответить на тему
 

mp1988 ®

Стаж: 6 лет 6 месяцев

Сообщений: 607

Симпатии: 971

Судная ночь /The Purge «Одну ночь в году дозволено все. Главное - дожить до рассвета»

Год выпуска: 2013
Страна: США, Франция
Жанр: триллер, ужасы
Продолжительность: 01:25:11
Перевод: Профессиональный (полное дублирование) [iTunes Russia]-- Режиссер: Джеймс ДеМонако-- В ролях: Итан Хоук, Лина Хиди, Макс Буркхолдер, Аделаида Кэйн, Эдвин Ходж, Риз Уэйкфилд, Тони Оллер, Ария Барейкис, Том Йи, Крис Малки
--
Описание: Мир будущего — мир без преступности… безработицы… войн. И все это благодаря одной ночи в году, когда можно отправить на тот свет любого — злобного босса, шумных соседей, надоевших родственников. В Судную ночь дозволено все — главное дожить до рассвета.--
  -- Бюджет: $3 000 000
Премьера (мир): 12 мая 2013
Рейтинг MPAA лицам до 17 лет обязательно присутствие взрослого--http://mover.uz/watch/iZT6oARj/ - --
Качество: WEB-DLRip (AVI)
Видео кодек: XviD Аудио кодек: AC3
Видео: XVID, 1904 kb/s, 720x304
Аудио: AC3, 384 Kb/s (6 ch) Russian

Скриншоты

Media Info

General
Complete name : G:\Sudnaja.Noch.2013.D.WEBDLRip.1400MB.avi
Format : AVI
Format/Info : Audio Video Interleave
File size : 1.37 GiB
Duration : 1h 25mn
Overall bit rate : 2 304 Kbps
Writing application : VirtualDubMod 1.5.10.2 (build 2540/release)
Writing library : VirtualDubMod build 2540/release
Video
ID : 0
Format : MPEG-4 Visual
Format profile : Advanced [email protected]
Format settings, BVOP : 2
Format settings, QPel : No
Format settings, GMC : No warppoints
Format settings, Matrix : Default (MPEG)
Codec ID : XVID
Codec ID/Hint : XviD
Duration : 1h 25mn
Bit rate : 1 910 Kbps
Width : 720 pixels
Height : 304 pixels
Display aspect ratio : 2.35:1
Frame rate : 23.976 fps
Color space : YUV
Chroma subsampling : 4:2:0
Bit depth : 8 bits
Scan type : Progressive
Compression mode : Lossy
Bits/(Pixel*Frame) : 0.364
Stream size : 1.14 GiB (83%)
Writing library : XviD 1.2.1 (UTC 2008-12-04)
Audio
ID : 1
Format : AC-3
Format/Info : Audio Coding 3
Mode extension : CM (complete main)
Codec ID : 2000
Duration : 1h 25mn
Bit rate mode : Constant
Bit rate : 384 Kbps
Channel(s) : 6 channels
Channel positions : Front: L C R, Side: L R, LFE
Sampling rate : 48.0 KHz
Bit depth : 16 bits
Compression mode : Lossy
Stream size : 234 MiB (17%)
Alignment : Split accross interleaves
Interleave, duration : 42 ms (1.00 video frame)
Interleave, preload duration : 500 ms


Последний раз редактировалось: mp1988 (2013-08-05 21:24), всего редактировалось 2 раз(а)

Создавать темы 25-Июл-2013 12:43

[Профиль]  [ЛС] 

Vudi18

Стаж: 4 года 9 месяцев

Сообщений: 117

Симпатии: 3

Ухххххх качество шик!Спасибо БольшоЕ!!

Создавать темы 25-Июл-2013 12:47

[Профиль]  [ЛС] 

ТимКа

Стаж: 5 лет 7 месяцев

Сообщений: 80

веб рип а ааа подразнили только на раздачу так и не встал

_________________
Подпись отключена за нарушение правил форума

Создавать темы 25-Июл-2013 13:07

[Профиль]  [ЛС] 

air6797

Стаж: 4 года 9 месяцев

Сообщений: 114

Симпатии: 1

Перевод: Профессиональный (полное дублирование) [iTunes Russia]
Не понял ???

Создавать темы 25-Июл-2013 13:09

[Профиль]  [ЛС] 

Rambotnik

Стаж: 6 лет 4 месяца

Сообщений: 1274

Симпатии: 81

Не понял ???
Что непонятного ? Увидели iTunes в списке лицензеров и всё - разрыв шаблона ?)))

Создавать темы 25-Июл-2013 13:17

[Профиль]  [ЛС] 

KiNG_RaMIRo

Стаж: 4 года 10 месяцев

Сообщений: 29

классный фильм! искалл

Создавать темы 25-Июл-2013 13:42

[Профиль]  [ЛС] 

dy8uk

Стаж: 6 лет 2 месяца

Сообщений: 105

Симпатии: 3

дайте докачать 84 метра, а то у "соседей" скорость никакая. Потом всем помогу

Создавать темы 25-Июл-2013 13:51

[Профиль]  [ЛС] 

efremenko_ser

Стаж: 6 лет 11 месяцев

Сообщений: 99

Симпатии: 4

Помогаю!!!

Создавать темы 25-Июл-2013 14:50

[Профиль]  [ЛС] 

Rasul

Стаж: 5 лет 7 месяцев

Сообщений: 100

Симпатии: 6

Классно осталось только скачать....

Создавать темы 25-Июл-2013 21:29

[Профиль]  [ЛС] 

skynet

Стаж: 5 лет 7 месяцев

Сообщений: 296

Симпатии: 6

Оформления релиза просто супер)))

Создавать темы 26-Июл-2013 11:15

[Профиль]  [ЛС] 

Almashina

Стаж: 5 лет 9 месяцев

Сообщений: 26

Симпатии: 7

Как звук? "Чистый звук" или лицензия?

Создавать темы 27-Июл-2013 23:46

[Профиль]  [ЛС] 

Nogganov

Стаж: 4 года 2 месяца

Сообщений: 67

Симпатии: 1

фильм просто ппц.....что то вроде голодных игр, только еще жоще !!!!!!

Создавать темы 28-Июл-2013 16:27

[Профиль]  [ЛС] 

uTorrent

Стаж: 4 года 10 месяцев

Сообщений: 149

Симпатии: 1

У меня трафик уходит за внешку когда этот релиз качаю. айпифильтр включен новый. DHT отключен. в чем проблема?

Создавать темы 01-Авг-2013 11:53

[Профиль]  [ЛС] 

vanfank

Стаж: 4 года 3 месяца

Сообщений: 141

Симпатии: 5

Фильм не впечетлил, но за оригиналность 5 баллов
плохая игра актеров... но конечно было бы хуже если бы всех убили

Создавать темы 01-Авг-2013 19:38

[Профиль]  [ЛС] 

3akir

Стаж: 5 лет 4 месяца

Сообщений: 33

Оформления релиза просто супер)))
даа ты прав оформления релиза отпад

Создавать темы 02-Авг-2013 12:01

[Профиль]  [ЛС] 
Показать сообщения:    
Ответить на тему

Текущее время: 24-Авг 10:02

Часовой пояс: UTC + 5



Вы не можете начинать темы
Вы не можете отвечать на сообщения
Вы не можете редактировать свои сообщения
Вы не можете удалять свои сообщения
Вы не можете голосовать в опросах
Вы не можете прикреплять файлы к сообщениям
Вы не можете скачивать файлы