Улики / Evidence (Олатунде Осунсанми) [2013, Триллер, Ужасы, WEB-DLRip] Dub - Чистый звук

Страницы :  1, 2  След.

Ответить на тему
 

Grock ®

Стаж: 6 лет 8 месяцев

Сообщений: 637

Симпатии: 113

Улики / Evidence
Название: Улики
Оригинальное название: Evidence
Год выпуска: 2013
Жанр: Триллер, Ужасы
Перевод: Дублированный [Чистый звук]
Режиссер: Олатунде Осунсанми
В ролях: Рада Митчелл, Стивен Мойер, Торри ДеВито, Нолан Фанк, Дейл Дикки, Гарри Дж. Ленникс, Кэйтлин Стэйси, Амл Амин, Джон Хеймс Ньютон, Светлана Меткина и др.
Описание: В автобусе, направлявшемся в Лас-Вегас, совершено жестокое убийство. На месте преступления — ни одного уцелевшего. Только несколько трупов и хаотичный набор мобильных телефонов, карманных видеокамер и других устройств, оставшихся от потерпевших. Детектив, которому поручено расследование, с помощью сохранившихся записей пытается восстановить цепь загадочных событий, приведших к трагедии.
Страна:
Студия: Bold Films/Marc Platt Productions
Продолжительность: 01:33:56
Качество: WEB-DLRip
Формат: AVI
Видео кодек: XviD
Аудио кодек: AC3
Видео данные: 656x272 (2.41:1), 23.976 fps, XviD build 50 ~906 kbps avg, 0.21 bit/pixel
Аудио данные: 48 kHz, MPEG Layer 3, 2 ch, ~128.00 kbps avg

Медиа Инфо


General
Complete name : E:\Фильмы\Улики.2013.WEB-DLRip.avi
Format : AVI
Format/Info : Audio Video Interleave
File size : 702 MiB
Duration : 1h 33mn
Overall bit rate : 1 044 Kbps
Writing application : VirtualDubMod 1.5.10.2 (build 2540/release)
Writing library : VirtualDubMod build 2540/release
Video
Format : MPEG-4 Visual
Format profile : Streaming [email protected]
Format settings, BVOP : Yes
Format settings, QPel : No
Format settings, GMC : No warppoints
Format settings, Matrix : Default
Codec ID : XVID
Codec ID/Hint : XviD
Duration : 1h 33mn
Bit rate : 907 Kbps
Width : 656 pixels
Height : 272 pixels
Display aspect ratio : 2.412
Frame rate : 23.976 fps
Resolution : 24 bits
Colorimetry : 4:2:0
Scan type : Progressive
Bits/(Pixel*Frame) : 0.212
Stream size : 609 MiB (87%)
Writing library : XviD 50
Audio
Format : MPEG Audio
Format version : Version 1
Format profile : Layer 3
Codec ID : 55
Codec ID/Hint : MP3
Duration : 1h 33mn
Bit rate mode : Constant
Bit rate : 128 Kbps
Channel(s) : 2 channels
Sampling rate : 48.0 KHz
Resolution : 16 bits
Stream size : 86.0 MiB (12%)
Alignment : Aligned on interleaves
Interleave, duration : 42 ms (1.00 video frame)
Interleave, preload duration : 504 ms

Скриншоты







Последний раз редактировалось: Grock (2013-07-27 22:00), всего редактировалось 1 раз

Создавать темы 27-Июл-2013 13:28

[Профиль]  [ЛС] 

Bekzod562

Стаж: 6 лет 6 месяцев

Сообщений: 7

А нет рейтинг кинопоиска?

Создавать темы 27-Июл-2013 18:37

[Профиль]  [ЛС] 

Grock ®

Стаж: 6 лет 8 месяцев

Сообщений: 637

Симпатии: 113

А нет рейтинг кинопоиска?
Добавил).. Кстати, фильм понравился, неожиданный, скажем так)..

Создавать темы 27-Июл-2013 22:04

[Профиль]  [ЛС] 

Rocket

Стаж: 5 лет 5 месяцев

Сообщений: 5

Мощщщщныыыый фильм)) Был в шоке. Сюжет классный а концовка шикарная просто. Неожиданных поворот предостаточно

Создавать темы 29-Июл-2013 11:04

[Профиль]  [ЛС] 

vavilon4uk

Стаж: 4 года 5 месяцев

Сообщений: 15

фильм шикарный, концовка шокирует.. всем советую посмотреть!

Создавать темы 14-Сен-2013 17:24

[Профиль]  [ЛС] 

Grock ®

Стаж: 6 лет 8 месяцев

Сообщений: 637

Симпатии: 113

фильм шикарный, концовка шокирует..
Согласен =).. посмотреть стоит

Создавать темы 16-Сен-2013 18:50

[Профиль]  [ЛС] 

СтАсИкОс

Стаж: 6 лет 9 месяцев

Сообщений: 314

Симпатии: 20

Заинтриговали, посмотрим ...

Создавать темы 16-Сен-2013 19:08

[Профиль]  [ЛС] 

Azizaaaaa

Стаж: 4 года 2 месяца

Сообщений: 55

Симпатии: 1

хороший фильм.... конец непредсказуем аж))))))))

Создавать темы 19-Сен-2013 23:52

[Профиль]  [ЛС] 

nico3500

Стаж: 4 года 9 месяцев

Сообщений: 99

Симпатии: 6

Фильм захватывает от начала до конца. Очень неожиданная постановка, кадры с видеокамер, а финал вообще СУПЕР. Однозначно смотреть. Автору релиза СПАСИБО!!!

Создавать темы 24-Сен-2013 23:47

[Профиль]  [ЛС] 

санжар1012

Стаж: 5 лет 8 месяцев

Сообщений: 9

да совсем сумашедший

Создавать темы 25-Сен-2013 16:08

[Профиль]  [ЛС] 

james007

Стаж: 6 лет 4 месяца

Сообщений: 25

ДАйте газу с раздачи! скорость скорость

Создавать темы 27-Сен-2013 23:30

[Профиль]  [ЛС] 

k-a-m-o-l

Стаж: 5 лет 8 месяцев

Сообщений: 14

суперррррррррррррррррр

Создавать темы 03-Окт-2013 00:50

[Профиль]  [ЛС] 

Kenju

Стаж: 7 лет 8 месяцев

Сообщений: 5

Хм, интересно, ща глянем. Пасиб.

Создавать темы 03-Окт-2013 01:17

[Профиль]  [ЛС] 

Sherzod2012

Стаж: 5 лет 6 месяцев

Сообщений: 34

Симпатии: 1

просто сумашедший фильм смотрим все рекомендую!!

Создавать темы 13-Окт-2013 14:14

[Профиль]  [ЛС] 

outoforder

Стаж: 4 года 11 месяцев

Сообщений: 812

Симпатии: 172

Очередной ужастик, призванный попугать непонятно чем и заинтриговать на пустом месте. Опять чудо-восстанавливающие из ничего картинку программы. Тайм-код, который появляется в конце, а до этого его какбэ нету, какой видеоредактор позволяет "запороть" видео?? какой видео-редактор накладывает видимый тайм-код на видео??? Тёлочки, бегающие с километровым шлангом и резаком, да ну неужели правда??? Да и вобщем довольно скомканный фильмец. Трижды заснул пока досмотрел. au

Создавать темы 19-Окт-2013 22:57

[Профиль]  [ЛС] 
Показать сообщения:    
Ответить на тему

Текущее время: 21-Окт 22:38

Часовой пояс: UTC + 5



Вы не можете начинать темы
Вы не можете отвечать на сообщения
Вы не можете редактировать свои сообщения
Вы не можете удалять свои сообщения
Вы не можете голосовать в опросах
Вы не можете прикреплять файлы к сообщениям
Вы не можете скачивать файлы