Алексей Кузьмичев | Мастерская эффектов. Видеокурс [2012] [unpacked (mp4)]

Ответить на тему
 

Project I ®

Стаж: 4 года 8 месяцев

Сообщений: 2

Алексей Кузьмичев | Мастерская эффектов. Видеокурс [2012] [unpacked]- -Автор (издатель): Алексей Кузьмичев
Название: Мастерская эффектов. Видеокурс
Год: 2012
Жанр: обучающее видео-Системные требования:
• Операционная система Microsoft Windows 98/Me/200/XP/Vista/7
• Процессор Pentium II 500 Мгц
• 128 Мб оперативной памяти
• Разрешение экрана 1364x728 с глубиной цвета 16 бит
• Наличие Adobe Flash Player 10-Формат: unpacked (mp4)-Описание:
Одним из основных принципов работы в фотошопе является умение создавать и применять различные эффекты. Правильно комбинируя и добавляя их можно из обычной унылой фотографии сделать великолепную, наполненную яркими красками и цветами композицию. Все фундаментальные секреты создания и применения эффектов вошли в новый видеокурс "Мастерская эффектов", посвященный тому, как использовать их невероятную силу на полную катушку!-Чем Вам грозит прохождение курса-
Вы поднимете свои навыки работы в фотошоп на новый уровень.
Вы окажетесь на высшей ступени мира дизайна и фотографии.
Вы сможете сами придумывать и воплощать любые эффекты и задумки в своих работах.
Вы будете всё делать с потрясающей лёгкостью и получать огромное наслаждение от работы.
Вам больше не нужно будет часами прочёсывать интернет в поисках урока, где разбирается нужный вам эффект.
Любая Ваша работа будет уникальной и неповторимой.
Ваши друзья и клиенты будут биться в экстазе от Ваших творений.
Возможно, в это трудно поверить, но это действительно так! Всё что Вам нужно - это понять простые принципы создания эффектов, которые применяют в своей практике все успешные мастера фотошопа.
По сути Вы получаете сразу 3 полноценных видеокурса!
В первом разделе "Фотоэффекты" мы с Вами изучим основные приёмы и техники обработки фотографий. Вы узнаете главные принципы создания и применения эффектов.
Способы тонирования фотографий
Имитацию фотографий под живопись
Секреты создания HDR снимков
Техники обработки студийных снимков
Приёмы текстурирования
и многое другое
Второй раздел курса посвящён текстовым эффектам. Вы узнаете как из обычного текста сделать потрясающие эффектные надписи.
Как правильно работать с кистями, чтобы получать отличные результаты
Как работать со стилями
Как работать с узорами
Как придать объём тексту
и многое другое
Ну и в 3 части курса мы воспользуемся всеми полученными в процессе изучения курса знаниями и навыками и приступим к созданию полноценных композиций.
Качественно заменять фон на фотографиях
Грамотно настраивать освещение
Совмещать несколько фотографий
Создавать потрясающие световые эффекты
Создавать эффектные композиции
и многое многое другое
Бонус №1. "Коллекция световых эффектов"
Бонус №2. "Огромный сборник кистей"
Бонус №3. "Коллекция Bokeh текстур"
-Скриншоты меню:



-Скриншоты:
-

Медиа Инфо (Каждое)

Общее
Полное имя : [video] Алексей Кузьмичев Мастерская эффектов. Видеокурс [2012] [unpacked]
Формат : MPEG-4
Профиль формата : Base Media / Version 2
Идентификатор кодека : mp42
Размер файла : 19,2 Мбайт
Продолжительность : X м. XX с.
Общий поток : 347 Кбит/сек
Дата кодирования : UTC XXXX-XX-XX XX:XX:XX
Дата пометки : UTC XXXX-XX-XX XX:XX:XX
Видео
Идентификатор : 1
Формат : AVC
Формат/Информация : Advanced Video Codec
Профиль формата : [email protected]
Параметр CABAC формата : Да
Параметр ReFrames формата : 4 кадра
Параметр GOP формата : M=3, N=75
Идентификатор кодека : avc1
Идентификатор кодека/Информация : Advanced Video Coding
Продолжительность : 7 м. 44 с.
Продолжительность оригинала : 7 м. 44 с.
Вид битрейта : Переменный
Битрейт : 290 Кбит/сек
Ширина : 1364 пикселя
Высота : 728 пикселей
Соотношение сторон : 1,85:1
Режим частоты кадров : Постоянный
Частота кадров : 15,000 кадров/сек
Цветовое пространство : YUV
Субдискретизация насыщенности : 4:2:0
Битовая глубина : 8 бит
Тип развёртки : Прогрессивная
Бит/(Пиксели*Кадры) : 0.019
Размер потока : 16,1 Мбайт (84%)
Размер потока оригинала : 16,1 Мбайт (84%)
Язык : English
Дата кодирования : UTC 2012-02-17 20:34:54
Дата пометки : UTC 2012-02-17 20:34:54
mdhd_Duration : 464241
Основные цвета : BT.709
Характеристики трансфера : BT.709
Коэффициенты матрицы : BT.709
Аудио
Идентификатор : 2
Формат : AAC
Формат/Информация : Advanced Audio Codec
Профиль формата : LC
Идентификатор кодека : 40
Продолжительность : X м. XX с.
Продолжительность оригинала : X м. XX с.
Вид битрейта : Постоянный
Битрейт : 54,8 Кбит/сек
Каналы : 2 канала
Расположение каналов : Front: L R
Частота : 22,05 КГц
Метод сжатия : С потерями
Размер потока : 3,03 Мбайт (16%)
Размер потока оригинала : 3,03 Мбайт (16%)
Язык : English
Дата кодирования : UTC 2012-02-17 20:34:54
Дата пометки : UTC 2012-02-17 20:34:54
mdhd_Duration : 464229


Последний раз редактировалось: Project I (2013-07-31 09:35), всего редактировалось 4 раз(а)

Создавать темы 30-Июл-2013 19:26

[Профиль]  [ЛС] 

npocTo kpacaB4uk

Стаж: 4 года 6 месяцев

Сообщений: 321

Симпатии: 20

Спасибо!!! ждем проверки

Создавать темы 30-Июл-2013 19:27

[Профиль]  [ЛС] 

Топик был перенесен из форума Видеоуроки в форум Графика и Дизайн

nadezcda

Создавать темы 30-Июл-2013 19:49

 

Evropa_uzb

Стаж: 5 лет 3 месяца

Сообщений: 98

Симпатии: 5

СПАСИБО !! нормально только теперь первое осталось что автор активно стал на раздачу второе найти время и терпение что бы пройти все курсы и Хоть что то что бы осталось .. ))

Создавать темы 01-Авг-2013 01:40

[Профиль]  [ЛС] 

rustam_96

Стаж: 5 лет 8 месяцев

Сообщений: 132

Симпатии: 16

большое спасиба автору и тем кто раздаёт

Создавать темы 09-Окт-2013 22:17

[Профиль]  [ЛС] 
Показать сообщения:    
Ответить на тему

Текущее время: 25-Сен 16:37

Часовой пояс: UTC + 5



Вы не можете начинать темы
Вы не можете отвечать на сообщения
Вы не можете редактировать свои сообщения
Вы не можете удалять свои сообщения
Вы не можете голосовать в опросах
Вы не можете прикреплять файлы к сообщениям
Вы не можете скачивать файлы