Наступит завтра или нет? / Kal Ho Naa Ho (Никхил Адвани, Рон Рейд мл.) [2003 г., Драма, Комедия, Мелодрама, DVDRip]

Ответить на тему
 

Sobir76 ®

Стаж: 4 года 5 месяцев

Сообщений: 12

Симпатии: 2

Наступит завтра или нет? / Kal Ho Naa Ho
Год выпуска: 2003
Страна: Индия
Жанр: Драма, Комедия, Мелодрама
Продолжительность: 03:00:03
Перевод: Профессиональный (полное дублирование)
Режиссер: Никхил Адвани, Рон Рейд мл.
В ролях: Шах Рукх Кхан, Прити Зинта, Саиф Али Кхан, Джая Бхадури, Сушма Сетх, Рима Лагу, Лиллет Дюбей, Делнааз Пол, Рани Мукхерджи, Сонали Бендре
Описание: Действие фильма происходит в Нью-Йорке весной 2003 года.
Для Нэйны Капур зима продолжается. Зима в сердце, потому что со дня смерти отца вся жизнь ее подчинена бесконечным выяснением отношений в семье. Забота о сестре и брате, помощь матери Дженнифер, несносный характер бабушки — вот ее жизнь. Вечеринки, забавы и шутки обходят ее стороной. Ей 23 года, но в душе она уже бабушка — серьезная и скучная.
Аман Матхур — свежее дуновение в ее жизни. Он полюбил Нейну. Но ей не нравится оптимизм и напористость Амана. Ее улыбка — отныне цель жизни Амана, и ради этого он зовет на помощь друга Нейны Рохита, чтобы он помог растормошить девушку. Рохит понимает, что безумно влюбляется в Нейну. Когда кажется, что жизнь заиграла новыми красками, понимаешь, что для некоторых эти мгновения являются последними. Наступит завтра или нет?
Доп. информация: Кинопоиск 8.25
IMDb: 7.70
Качество: DVDRip
Формат: MPEG
Видео кодек: AVC
Аудио кодек: AAC
Видео: Video: 640x360px, 750Kbps, 23.976 fps
Аудио: Audio: 48.0 KHz, 2 channels, 172 Kbps

Медиа инфо

General
Complete name : F:\Индеецкие филмы\Наступит завтра или нет-.mp4
Format : MPEG-4
Format profile : Base Media
Codec ID : isom
File size : 1.07 GiB
Duration : 3h 0mn
Overall bit rate : 852 Kbps
Encoded date : UTC 2013-07-26 16:42:33
Tagged date : UTC 2013-07-26 16:42:33
Writing application : GOM Video Converter (GMp4Writer 1.0)
Comment : QuickTime 6.0 or greater
Video
ID : 1
Format : AVC
Format/Info : Advanced Video Codec
Format profile : [email protected]
Format settings, CABAC : Yes
Format settings, ReFrames : 1 frame
Codec ID : avc1
Codec ID/Info : Advanced Video Coding
Duration : 3h 0mn
Bit rate mode : Variable
Bit rate : 750 Kbps
Width : 640 pixels
Height : 360 pixels
Display aspect ratio : 16:9
Frame rate mode : Variable
Frame rate : 23.976 fps
Original frame rate : 47.952 fps
Minimum frame rate : 23.970 fps
Maximum frame rate : 24.212 fps
Color space : YUV
Chroma subsampling : 4:2:0
Bit depth : 8 bits
Scan type : Progressive
Bits/(Pixel*Frame) : 0.136
Stream size : 966 MiB (88%)
Language : English
Encoded date : UTC 2013-07-26 16:42:33
Tagged date : UTC 2013-07-26 16:42:33
Audio
ID : 2
Format : AAC
Format/Info : Advanced Audio Codec
Format version : Version 4
Format profile : LC
Format settings, SBR : No
Codec ID : 40
Duration : 2h 59mn
Bit rate mode : Variable
Bit rate : 96.0 Kbps
Maximum bit rate : 172 Kbps
Channel(s) : 2 channels
Channel positions : Front: L R
Sampling rate : 48.0 KHz
Stream size : 124 MiB (11%)
Language : English
Encoded date : UTC 2013-07-26 16:42:34
Tagged date : UTC 2013-07-26 16:42:34

Скриншоты






Последний раз редактировалось: Sobir76 (2013-07-31 12:23), всего редактировалось 1 раз

Создавать темы 30-Июл-2013 22:58

[Профиль]  [ЛС] 

Grock

Стаж: 6 лет 10 месяцев

Сообщений: 637

Симпатии: 113

Подправил чуток тех.данные и описание

Создавать темы 31-Июл-2013 12:24

[Профиль]  [ЛС] 
Показать сообщения:    
Ответить на тему

Текущее время: 15-Дек 19:01

Часовой пояс: UTC + 5



Вы не можете начинать темы
Вы не можете отвечать на сообщения
Вы не можете редактировать свои сообщения
Вы не можете удалять свои сообщения
Вы не можете голосовать в опросах
Вы не можете прикреплять файлы к сообщениям
Вы не можете скачивать файлы