Король-рыбак / The Fisher King (Терри Гиллиам / Terry Gilliam) [1991, США, драма, комедия, BDRip 720p] MVO + AVO (Михалёв)

Ответить на тему
 

Robot-IX ®

Стаж: 5 лет 7 месяцев

Сообщений: 223

Симпатии: 9

Король-рыбак / The Fisher King«Some called him a hero. Some called him the most dangerous man in America»- Год выпуска: 1991
Страна: США
Студия: Columbia Pictures Corporation
Жанр: драма, комедия, ...
Продолжительность: 02:17:39
Перевод:
-Профессиональный (многоголосый, закадровый)
-Авторский (одноголосый закадровый) - Алексей Михалёв-Режиссёр: Терри Гиллиам / Terry Gilliam
Сценарий: Ричард ЛаГравенес
Продюсер: Дебра Хилл, Линда Обст, Тони Марк, ...
Оператор: Роджер Прэтт
Композитор: Джордж Фентон-В ролях: Джефф Бриджес, Робин Уильямс, Аманда Пламмер, Мерседес Руэл,
Хэрри Ширер, Майкл Джетер, Адам Брайант, Пол Дж. Ломбарди, Мерседес Руэл,
Дэвид Хайд Пирс ...-Описание:
Джек — популярный радиоведущий. У него есть чувство юмора, сарказм и профессиональный
цинизм, который в итоге оборачивается трагедией: один из постоянных слушателей последовал
его ироничному совету: вошел в людное кафе и разрядил полную обойму в ничего не
подозревающих посетителей.
Потрясенный Джек бросает работу и уходит в запой, погружаясь на дно отчаяния. В этот
момент он встречает бездомного бродягу Пэрри, в прошлом — профессора истории, который
увлекает его в удивительный мир собственных фантазий, где по унылым улицам огромного
города шествуют средневековые рыцари, а небоскребы превращаются в величественные замки.
Вдвоем они отправляются на поиски Святого Грааля… в район Манхэттэна.-Доп. информация:
IMDb: 7.50/10
КиноПоиск: 7.944/10
MPAA: R - лицам до 17 лет обязательно присутствие родителей или взрослого

Знаете ли вы что...

  • Сцена массового танца в Гранд Централ изначально должна была происходить на станции метро и без танцев — по сценарию, пассажиры метро должны были слушать пение чернокожей бездомной. Гиллиам решил, что в таком виде сцена не «сработает» и внёс в неё изменения. Сцена снималась на протяжении ночи, с привлечением профессиональных танцоров и обычных пассажиров, сошедших с поезда.
  • После выхода на экраны фильма каждую новогоднюю ночь в большом зале Гранд Централ (Grand Central Station) оркестр играет вальс и все присутствующие танцуют.
  • Тэрри Гиллиам в этом фильме вернулся к теме Священного Грааля, однажды уже затронутой им в фильме «Монти Пайтон и Священный Грааль».
-Тип релиза: BDRip 720p (AMIABLE)
Формат: MKV (Matroska)
Видео кодек: H.264/AVC
Аудио кодек: AС3
Видео: H.264, 1280x696, 23.976 fps, 4 172 Kbps, 0,195 bit/pixel,
Аудио №1: Русский, AC3, 2 ch (L,R), 48.0 KHz, 192 kbps | Многоголосый закадровый
Аудио №2: Русский, AC3, 2 ch (L,R), 48.0 KHz, 192 kbps | Авторский (одноголосый закадровый) Алексей Михалёв (рекомендуемый)-

MediaInfo

General
Unique ID : 220230273280319704977624807779244057211 (0xA5AECECBCAAF897E9206B9671262227B)
Complete name : D:\Torent\Korol_Ribak_1991.BDRip.720p.mkv
Format : Matroska
Format version : Version 4 / Version 2
File size : 4.38 GiB
Duration : 2h 17mn
Overall bit rate : 4 554 Kbps
Encoded date : UTC 2013-08-01 08:24:31
Writing application : mkvmerge v6.0.0 ('Coming Up For Air') built on Jan 20 2013 09:52:00
Writing library : libebml v1.3.0 + libmatroska v1.4.0
Video
ID : 1
Format : AVC
Format/Info : Advanced Video Codec
Format profile : [email protected]
Format settings, CABAC : Yes
Format settings, ReFrames : 5 frames
Codec ID : V_MPEG4/ISO/AVC
Duration : 2h 17mn
Bit rate : 4 172 Kbps
Width : 1 280 pixels
Height : 696 pixels
Display aspect ratio : 16:9
Frame rate : 23.976 fps
Color space : YUV
Chroma subsampling : 4:2:0
Bit depth : 8 bits
Scan type : Progressive
Bits/(Pixel*Frame) : 0.195
Stream size : 3.92 GiB (90%)
Title : The Fisher King _1991
Writing library : x264 core 119 r2106 07efeb4
Encoding settings : cabac=1 / ref=5 / deblock=1:0:0 / analyse=0x3:0x113 / me=umh / subme=8 / psy=1 / psy_rd=1.00:0.00 / mixed_ref=1 / me_range=16 / chroma_me=1 / trellis=1 / 8x8dct=1 / cqm=0 / deadzone=21,11 / fast_pskip=1 / chroma_qp_offset=-2 / threads=12 / sliced_threads=0 / nr=0 / decimate=1 / interlaced=0 / bluray_compat=0 / constrained_intra=0 / bframes=3 / b_pyramid=2 / b_adapt=2 / b_bias=0 / direct=3 / weightb=1 / open_gop=0 / weightp=2 / keyint=240 / keyint_min=24 / scenecut=40 / intra_refresh=0 / rc_lookahead=50 / rc=2pass / mbtree=1 / bitrate=4172 / ratetol=1.0 / qcomp=0.60 / qpmin=0 / qpmax=69 / qpstep=4 / cplxblur=20.0 / qblur=0.5 / ip_ratio=1.40 / aq=1:1.00
Language : English
Default : Yes
Forced : No
Audio #1
ID : 2
Format : AC-3
Format/Info : Audio Coding 3
Mode extension : CM (complete main)
Codec ID : A_AC3
Duration : 2h 17mn
Bit rate mode : Constant
Bit rate : 192 Kbps
Channel(s) : 2 channels
Channel positions : Front: L R
Sampling rate : 48.0 KHz
Bit depth : 16 bits
Compression mode : Lossy
Stream size : 189 MiB (4%)
Title : Многоголосый закадровый
Language : Russian
Default : Yes
Forced : Yes
Audio #2
ID : 3
Format : AC-3
Format/Info : Audio Coding 3
Mode extension : CM (complete main)
Codec ID : A_AC3
Duration : 2h 17mn
Bit rate mode : Constant
Bit rate : 192 Kbps
Channel(s) : 2 channels
Channel positions : Front: L R
Sampling rate : 48.0 KHz
Bit depth : 16 bits
Compression mode : Lossy
Stream size : 189 MiB (4%)
Title : Авторский (Михалёв)
Language : Russian
Default : No
Forced : No

Скриншоты







Создавать темы 01-Авг-2013 15:09

[Профиль]  [ЛС] 
Показать сообщения:    
Ответить на тему

Текущее время: 18-Ноя 21:03

Часовой пояс: UTC + 5



Вы не можете начинать темы
Вы не можете отвечать на сообщения
Вы не можете редактировать свои сообщения
Вы не можете удалять свои сообщения
Вы не можете голосовать в опросах
Вы не можете прикреплять файлы к сообщениям
Вы не можете скачивать файлы