Формула 1. Сезон 1992 г. Гонки (16 этапов из 16) ["BBC Sport","Eurosport","RTL","PTP-Арена"] VHSRip

Ответить на тему
 

M.J. ®

Стаж: 4 года 1 месяц

Сообщений: 25

Симпатии: 8

Формула 1. Сезон 1992 г. Гонки
-Год выпуска: 1992
Вид спорта: Формула 1
Участники: Пилоты королевских гонок
Комментарий: 1-3 этапы - английский и европейские языки (по причине отсутствия русскоязычных трансляций), 4-16 этапы - русский
Качество: VHSRip
Видео & Аудио: под спойлером к каждому этапу-

Этап 01. Гран При Южной Африки, Кьялами (01.03.1992 г., "BBC Sport")

-Продолжительность: 01:45:50-Канал: BBC Sport-Качество: VHSRip
Формат: Audio Video Interleave
Видео кодек: XVID
Аудио кодек: MP3
Видео: XviD, 1756 Kbps, 512x384 pixels, 25.000 fps
Аудио: MPEG Audio, 79.7 Kbps, 2 channels, 48.0 KHz-

Media Info


General
Format : AVI
Format/Info : Audio Video Interleave
File size : 1.36 GiB
Duration : 1h 45mn
Overall bit rate mode : Variable
Overall bit rate : 1 846 Kbps
Movie name : 1992 South African Grand Prix round 1 eng
Writing application : VirtualDubMod 1.5.10.3 (build 2550/release)
Writing library : VirtualDubMod build 2550/release
Video
ID : 0
Format : MPEG-4 Visual
Format profile : Advanced [email protected]
Format settings, BVOP : 1
Format settings, QPel : No
Format settings, GMC : No warppoints
Format settings, Matrix : Default (H.263)
Muxing mode : Packed bitstream
Codec ID : XVID
Codec ID/Hint : XviD
Duration : 1h 45mn
Bit rate : 1 756 Kbps
Width : 512 pixels
Height : 384 pixels
Display aspect ratio : 4:3
Frame rate : 25.000 fps
Color space : YUV
Chroma subsampling : 4:2:0
Bit depth : 8 bits
Scan type : Progressive
Compression mode : Lossy
Bits/(Pixel*Frame) : 0.357
Stream size : 1.30 GiB (95%)
Writing library : XviD 1.1.0 (UTC 2005-11-22)
Audio
ID : 1
Format : MPEG Audio
Format version : Version 1
Format profile : Layer 3
Mode : Joint stereo
Mode extension : MS Stereo
Codec ID : 55
Codec ID/Hint : MP3
Duration : 1h 45mn
Bit rate mode : Variable
Bit rate : 79.7 Kbps
Minimum bit rate : 32.0 Kbps
Channel(s) : 2 channels
Sampling rate : 48.0 KHz
Compression mode : Lossy
Stream size : 60.3 MiB (4%)
Alignment : Split accross interleaves
Interleave, duration : 40 ms (1.00 video frame)
Interleave, preload duration : 500 ms
Writing library : LAME3.97b
Encoding settings : -m j -V 5 -q 3 -lowpass 16 --vbr-new -b 32
-

Скриншоты




-

Этап 02. Гран При Мексики, Мехико-Сити (22.03.1992 г.)

-Продолжительность: 01:55:58-Качество: VHSRip
Формат: Matroska
Видео кодек: Advanced Video Codec
Аудио кодек: Audio Coding 3
Видео: AVC, 1262 Kbps, 720x576 pixels, 25.000 fps
Аудио: AC-3, 256 Kbps, 2 channels, 48.0 KHz-

Media Info


General
Unique ID : 230271215509885836309255674688833057550 (0xAD3C9F78372D9CEFA4B1DA130927F30E)
Format : Matroska
Format version : Version 4 / Version 2
File size : 1.25 GiB
Duration : 1h 55mn
Overall bit rate : 1 548 Kbps
Movie name : 1992 Mexican Grand Prix round 2 eng
Encoded date : UTC 2013-01-27 11:09:32
Writing application : mkvmerge v6.0.0 ('Coming Up For Air') built on Jan 20 2013 09:52:00
Writing library : libebml v1.3.0 + libmatroska v1.4.0
Video
ID : 1
Format : AVC
Format/Info : Advanced Video Codec
Format profile : [email protected]
Format settings, CABAC : Yes
Format settings, ReFrames : 3 frames
Codec ID : V_MPEG4/ISO/AVC
Bit rate : 1 262 Kbps
Nominal bit rate : 1 500 Kbps
Width : 720 pixels
Height : 576 pixels
Display aspect ratio : 5:4
Frame rate mode : Variable
Standard : PAL
Color space : YUV
Chroma subsampling : 4:2:0
Bit depth : 8 bits
Scan type : Progressive
Writing library : x264 core 88
Encoding settings : cabac=1 / ref=3 / deblock=1:0:0 / analyse=0x3:0x113 / me=hex / subme=7 / psy=1 / psy_rd=1.00:0.00 / mixed_ref=1 / me_range=16 / chroma_me=1 / trellis=1 / 8x8dct=1 / cqm=0 / deadzone=21,11 / fast_pskip=1 / chroma_qp_offset=-2 / threads=1 / sliced_threads=0 / nr=0 / decimate=1 / mbaff=0 / constrained_intra=0 / bframes=3 / b_pyramid=0 / b_adapt=1 / b_bias=0 / direct=1 / wpredb=1 / wpredp=2 / keyint=250 / keyint_min=25 / scenecut=40 / intra_refresh=0 / rc_lookahead=40 / rc=abr / mbtree=1 / bitrate=1500 / ratetol=2.7 / qcomp=0.60 / qpmin=10 / qpmax=51 / qpstep=4 / ip_ratio=1.41 / aq=1:1.00
Language : English
Default : Yes
Forced : No
Audio
ID : 2
Format : AC-3
Format/Info : Audio Coding 3
Mode extension : CM (complete main)
Format settings, Endianness : Big
Codec ID : A_AC3
Duration : 1h 55mn
Bit rate mode : Constant
Bit rate : 256 Kbps
Channel(s) : 2 channels
Channel positions : Front: L R
Sampling rate : 48.0 KHz
Bit depth : 16 bits
Compression mode : Lossy
Stream size : 212 MiB (17%)
Language : English
Default : Yes
Forced : No
-

Скриншоты




-

Этап 03. Гран-При Бразилии, Интерлагос (05.04.1992 г., "Eurosport")

-Продолжительность: 01:53:50-Канал: Eurosport-Качество: VHSRip
Формат: Audio Video Interleave
Видео кодек: XVID
Аудио кодек: MP3
Видео: XviD, 1631 Kbps, 576x432 pixels, 25.000 fps
Аудио: MPEG Audio, 80 Kbps, 2 channels, 48.0 KHz-

Media Info


General
Format : AVI
Format/Info : Audio Video Interleave
File size : 1.37 GiB
Duration : 1h 53mn
Overall bit rate : 1 720 Kbps
Movie name : 1992 Brazilian Grand Prix round 3 eng
Writing application : VirtualDubMod 1.5.10.3 (build 2550/release)
Writing library : VirtualDubMod build 2550/release
Video
ID : 0
Format : MPEG-4 Visual
Format profile : Advanced [email protected]
Format settings, BVOP : 1
Format settings, QPel : No
Format settings, GMC : No warppoints
Format settings, Matrix : Default (H.263)
Muxing mode : Packed bitstream
Codec ID : XVID
Codec ID/Hint : XviD
Duration : 1h 53mn
Bit rate : 1 631 Kbps
Width : 576 pixels
Height : 432 pixels
Display aspect ratio : 4:3
Frame rate : 25.000 fps
Color space : YUV
Chroma subsampling : 4:2:0
Bit depth : 8 bits
Scan type : Progressive
Compression mode : Lossy
Bits/(Pixel*Frame) : 0.262
Stream size : 1.30 GiB (95%)
Writing library : XviD 1.1.0 (UTC 2005-11-22)
Audio
ID : 1
Format : MPEG Audio
Format version : Version 1
Format profile : Layer 3
Codec ID : 55
Codec ID/Hint : MP3
Duration : 1h 53mn
Bit rate mode : Constant
Bit rate : 80.0 Kbps
Channel(s) : 2 channels
Sampling rate : 48.0 KHz
Compression mode : Lossy
Delay relative to video : 24ms
Stream size : 65.1 MiB (5%)
Alignment : Split accross interleaves
Interleave, duration : 40 ms (1.00 video frame)
Interleave, preload duration : 500 ms
-

Скриншоты




-

Этап 04. Гран-При Испании, Каталунья-Монмело (03.05.1992 г.,"BBC Sport")

-Продолжительность: 02:17:21-Канал: BBC Sport-Качество: VHSRip
Формат: Matroska
Видео кодек: V_MPEG4/ISO/AVC
Аудио кодек: AC-3
Видео: AVC, 1282 Kbps, 720x576 pixels, 25.000 fps
Аудио: AC-3, 256 Kbps, 2 channels, 48.0 KHz-

Media Info


General
Unique ID : 196532757465683817791946746145405400920 (0x93DAD50F5BFFF69AA10BC9854EF7F758)
Format : Matroska
Format version : Version 2
File size : 1.51 GiB
Duration : 2h 17mn
Overall bit rate : 1 570 Kbps
Movie name : 1992 Spanish Grand Prix round 4 ru
Encoded date : UTC 2012-10-02 16:43:16
Writing application : mkvmerge v5.8.0 ('No Sleep / Pillow') built on Sep 2 2012 15:37:04
Writing library : libebml v1.2.3 + libmatroska v1.3.0
Video
ID : 1
Format : AVC
Format/Info : Advanced Video Codec
Format profile : [email protected]
Format settings, CABAC : Yes
Format settings, ReFrames : 3 frames
Muxing mode : Header stripping
Codec ID : V_MPEG4/ISO/AVC
Bit rate : 1 282 Kbps
Nominal bit rate : 1 500 Kbps
Width : 720 pixels
Height : 576 pixels
Display aspect ratio : 5:4
Frame rate mode : Variable
Standard : PAL
Color space : YUV
Chroma subsampling : 4:2:0
Bit depth : 8 bits
Scan type : Progressive
Writing library : x264 core 88
Encoding settings : cabac=1 / ref=3 / deblock=1:0:0 / analyse=0x3:0x113 / me=hex / subme=7 / psy=1 / psy_rd=1.00:0.00 / mixed_ref=1 / me_range=16 / chroma_me=1 / trellis=1 / 8x8dct=1 / cqm=0 / deadzone=21,11 / fast_pskip=1 / chroma_qp_offset=-2 / threads=1 / sliced_threads=0 / nr=0 / decimate=1 / mbaff=0 / constrained_intra=0 / bframes=3 / b_pyramid=0 / b_adapt=1 / b_bias=0 / direct=1 / wpredb=1 / wpredp=2 / keyint=250 / keyint_min=25 / scenecut=40 / intra_refresh=0 / rc_lookahead=40 / rc=abr / mbtree=1 / bitrate=1500 / ratetol=2.7 / qcomp=0.60 / qpmin=10 / qpmax=51 / qpstep=4 / ip_ratio=1.41 / aq=1:1.00
Default : Yes
Forced : No
Audio
ID : 2
Format : AC-3
Format/Info : Audio Coding 3
Mode extension : CM (complete main)
Format settings, Endianness : Big
Muxing mode : Header stripping
Codec ID : A_AC3
Duration : 2h 17mn
Bit rate mode : Constant
Bit rate : 256 Kbps
Channel(s) : 2 channels
Channel positions : Front: L R
Sampling rate : 48.0 KHz
Bit depth : 16 bits
Compression mode : Lossy
Stream size : 251 MiB (16%)
Language : Russian
Default : Yes
Forced : No
-

Скриншоты




-

Этап 05. Гран-При Сан-Марино, Имола (17.05.1992 г.)

-Продолжительность: 02:14:50-Качество: VHSRip
Формат: Matroska
Видео кодек: AVC
Аудио кодек: AC-3
Видео: AVC, 2073 Kbps, 720x576 pixels, 25.000 fps
Аудио: AC-3, 256 Kbps, 2 channels, 48.0 KHz-

Media Info


General
Unique ID : 229861726894179400348221729474053419792 (0xACEDC21F4128126D8BF3EE48D2203310)
Format : Matroska
Format version : Version 4 / Version 2
File size : 2.19 GiB
Duration : 2h 14mn
Overall bit rate : 2 330 Kbps
Movie name : 1992 12o Gran Premio Iceberg di San Marino round 5 ru
Encoded date : UTC 2013-02-01 02:56:16
Writing application : mkvmerge v6.0.0 ('Coming Up For Air') built on Jan 20 2013 09:52:00
Writing library : libebml v1.3.0 + libmatroska v1.4.0
Video
ID : 1
Format : AVC
Format/Info : Advanced Video Codec
Format profile : [email protected]
Format settings, CABAC : Yes
Format settings, ReFrames : 2 frames
Codec ID : V_MPEG4/ISO/AVC
Duration : 2h 14mn
Bit rate : 2 073 Kbps
Width : 720 pixels
Height : 576 pixels
Display aspect ratio : 5:4
Frame rate mode : Constant
Frame rate : 25.000 fps
Standard : PAL
Color space : YUV
Chroma subsampling : 4:2:0
Bit depth : 8 bits
Scan type : Progressive
Bits/(Pixel*Frame) : 0.200
Stream size : 1.91 GiB (87%)
Writing library : x264 core 106
Encoding settings : cabac=1 / ref=2 / deblock=0:0:0 / analyse=0x3:0x113 / me=dia / subme=9 / psy=1 / psy_rd=0.00:0.00 / mixed_ref=0 / me_range=16 / chroma_me=0 / trellis=1 / 8x8dct=1 / cqm=0 / deadzone=21,21 / fast_pskip=1 / chroma_qp_offset=0 / threads=1 / sliced_threads=0 / nr=0 / decimate=0 / interlaced=0 / constrained_intra=0 / bframes=2 / b_pyramid=0 / b_adapt=0 / b_bias=0 / direct=0 / weightb=0 / open_gop=0 / weightp=0 / keyint=500 / keyint_min=100 / scenecut=40 / intra_refresh=0 / rc=2pass / mbtree=0 / bitrate=2073 / ratetol=1.0 / qcomp=0.60 / qpmin=10 / qpmax=51 / qpstep=4 / cplxblur=20.0 / qblur=0.5 / ip_ratio=1.40 / pb_ratio=1.30 / aq=0
Language : English
Default : Yes
Forced : No
Audio
ID : 2
Format : AC-3
Format/Info : Audio Coding 3
Mode extension : CM (complete main)
Format settings, Endianness : Big
Codec ID : A_AC3
Duration : 2h 14mn
Bit rate mode : Constant
Bit rate : 256 Kbps
Channel(s) : 2 channels
Channel positions : Front: L R
Sampling rate : 48.0 KHz
Bit depth : 16 bits
Compression mode : Lossy
Stream size : 247 MiB (11%)
Language : Russian
Default : Yes
Forced : No
-

Скриншоты




-

Этап 06. Гран-При Монако, Монте-Карло (31.05.1992 г., "BBC Sport")

-Продолжительность: 02:25:39-Канал: BBC Sport-Качество: VHSRip
Формат: Matroska
Видео кодек: V_MPEG4/ISO/AVC
Аудио кодек: AC-3
Видео: AVC, 1262 Kbps, 720x576 pixels, 25.000 fps
Аудио: AC-3, 256 Kbps, 2 channels, 48.0 KHz-

Media Info


General
Unique ID : 233755981721981648704638927157342880452 (0xAFDBC3B578F31EFF932BA49DBFC5C2C4)
Format : Matroska
Format version : Version 4 / Version 2
File size : 1.58 GiB
Duration : 2h 25mn
Overall bit rate : 1 549 Kbps
Movie name : 1992 Monaco Grand Prix rus round 6 ru
Encoded date : UTC 2013-01-27 11:33:49
Writing application : mkvmerge v6.0.0 ('Coming Up For Air') built on Jan 20 2013 09:52:00
Writing library : libebml v1.3.0 + libmatroska v1.4.0
Video
ID : 1
Format : AVC
Format/Info : Advanced Video Codec
Format profile : [email protected]
Format settings, CABAC : Yes
Format settings, ReFrames : 3 frames
Codec ID : V_MPEG4/ISO/AVC
Bit rate : 1 262 Kbps
Nominal bit rate : 1 500 Kbps
Width : 720 pixels
Height : 576 pixels
Display aspect ratio : 5:4
Frame rate mode : Variable
Standard : PAL
Color space : YUV
Chroma subsampling : 4:2:0
Bit depth : 8 bits
Scan type : Progressive
Writing library : x264 core 88
Encoding settings : cabac=1 / ref=3 / deblock=1:0:0 / analyse=0x3:0x113 / me=hex / subme=7 / psy=1 / psy_rd=1.00:0.00 / mixed_ref=1 / me_range=16 / chroma_me=1 / trellis=1 / 8x8dct=1 / cqm=0 / deadzone=21,11 / fast_pskip=1 / chroma_qp_offset=-2 / threads=1 / sliced_threads=0 / nr=0 / decimate=1 / mbaff=0 / constrained_intra=0 / bframes=3 / b_pyramid=0 / b_adapt=1 / b_bias=0 / direct=1 / wpredb=1 / wpredp=2 / keyint=250 / keyint_min=25 / scenecut=40 / intra_refresh=0 / rc_lookahead=40 / rc=abr / mbtree=1 / bitrate=1500 / ratetol=2.7 / qcomp=0.60 / qpmin=10 / qpmax=51 / qpstep=4 / ip_ratio=1.41 / aq=1:1.00
Language : English
Default : Yes
Forced : No
Audio
ID : 2
Format : AC-3
Format/Info : Audio Coding 3
Mode extension : CM (complete main)
Format settings, Endianness : Big
Codec ID : A_AC3
Duration : 2h 25mn
Bit rate mode : Constant
Bit rate : 256 Kbps
Channel(s) : 2 channels
Channel positions : Front: L R
Sampling rate : 48.0 KHz
Bit depth : 16 bits
Compression mode : Lossy
Stream size : 267 MiB (17%)
Language : Russian
Default : Yes
Forced : No
-

Скриншоты




-

Этап 07. Гран-При Канады, Монреаль (14.06.1992 г., "BBC Sport","Eurosport","PTP-Арена")

-Продолжительность: 02:10:36-Канал: BBC Sport, Eurosport, PTP-Арена-Качество: VHSRip
Формат: Matroska
Видео кодек: V_MPEG4/ISO/AVC
Аудио кодек: AC-3
Видео: AVC, 1265 Kbps, 720x576 pixels, 25.000 fps
Аудио: AC-3, 256 Kbps, 2 channels, 48.0 KHz-

Media Info


General
Unique ID : 247837237694972598189664679047668149718 (0xBA73B73ACEF9C1208A0F5646987BADD6)
Format : Matroska
Format version : Version 4 / Version 2
File size : 1.42 GiB
Duration : 2h 10mn
Overall bit rate : 1 552 Kbps
Movie name : 1992 Canadian Grand Prix round 7 ru
Encoded date : UTC 2013-01-27 11:37:27
Writing application : mkvmerge v6.0.0 ('Coming Up For Air') built on Jan 20 2013 09:52:00
Writing library : libebml v1.3.0 + libmatroska v1.4.0
Video
ID : 1
Format : AVC
Format/Info : Advanced Video Codec
Format profile : [email protected]
Format settings, CABAC : Yes
Format settings, ReFrames : 3 frames
Codec ID : V_MPEG4/ISO/AVC
Bit rate : 1 265 Kbps
Nominal bit rate : 1 500 Kbps
Width : 720 pixels
Height : 576 pixels
Display aspect ratio : 5:4
Frame rate mode : Variable
Standard : PAL
Color space : YUV
Chroma subsampling : 4:2:0
Bit depth : 8 bits
Scan type : Progressive
Writing library : x264 core 88
Encoding settings : cabac=1 / ref=3 / deblock=1:0:0 / analyse=0x3:0x113 / me=hex / subme=7 / psy=1 / psy_rd=1.00:0.00 / mixed_ref=1 / me_range=16 / chroma_me=1 / trellis=1 / 8x8dct=1 / cqm=0 / deadzone=21,11 / fast_pskip=1 / chroma_qp_offset=-2 / threads=1 / sliced_threads=0 / nr=0 / decimate=1 / mbaff=0 / constrained_intra=0 / bframes=3 / b_pyramid=0 / b_adapt=1 / b_bias=0 / direct=1 / wpredb=1 / wpredp=2 / keyint=250 / keyint_min=25 / scenecut=40 / intra_refresh=0 / rc_lookahead=40 / rc=abr / mbtree=1 / bitrate=1500 / ratetol=2.7 / qcomp=0.60 / qpmin=10 / qpmax=51 / qpstep=4 / ip_ratio=1.41 / aq=1:1.00
Language : English
Default : Yes
Forced : No
Audio
ID : 2
Format : AC-3
Format/Info : Audio Coding 3
Mode extension : CM (complete main)
Format settings, Endianness : Big
Codec ID : A_AC3
Duration : 2h 10mn
Bit rate mode : Constant
Bit rate : 256 Kbps
Channel(s) : 2 channels
Channel positions : Front: L R
Sampling rate : 48.0 KHz
Bit depth : 16 bits
Compression mode : Lossy
Stream size : 239 MiB (16%)
Language : Russian
Default : Yes
Forced : No
-

Скриншоты




-

Этап 08. Гран-При Франции, Маньи-Кур (05.07.1992 г.)

-Продолжительность: 02:36:09-Качество: VHSRip
Формат: Windows Media
Видео кодек: WMV3
Аудио кодек: Windows Media Audio
Видео: VC-1, 2075 Kbps, 768x576 pixels, 25.000 fps
Аудио: WMA, 102 Kbps, 2 channels, 48.0 KHz-

Media Info


General
Format : Windows Media
File size : 2.39 GiB
Duration : 2h 36mn
Overall bit rate mode : Variable
Overall bit rate : 2 191 Kbps
Maximum Overall bit rate : 4 373 Kbps
Movie name : F1-1992-08-France-Magny Cours
Encoded date : UTC 2010-09-22 13:47:01.151
Writing application : 6.0.6002.18273 / Windows Movie Maker
Application : Windows Movie Maker 6.0.6002.18273
Video
ID : 2
Format : VC-1
Format profile : [email protected]
Codec ID : WMV3
Codec ID/Info : Windows Media Video 9
Codec ID/Hint : WMV3
Description of the codec : Windows Media Video 9
Duration : 2h 36mn
Bit rate mode : Variable
Bit rate : 2 075 Kbps
Width : 768 pixels
Height : 576 pixels
Display aspect ratio : 4:3
Frame rate : 25.000 fps
Bit depth : 8 bits
Scan type : Progressive
Compression mode : Lossy
Bits/(Pixel*Frame) : 0.188
Stream size : 2.26 GiB (95%)
Language : English (US)
Audio
ID : 1
Format : WMA
Format version : Version 2
Codec ID : 161
Codec ID/Info : Windows Media Audio
Description of the codec : Windows Media Audio 9.2 - VBR Quality 90, 48 kHz, stereo 1-pass VBR
Duration : 2h 36mn
Bit rate mode : Variable
Bit rate : 102 Kbps
Channel(s) : 2 channels
Sampling rate : 48.0 KHz
Bit depth : 16 bits
Stream size : 114 MiB (5%)
Language : English (US)
-

Скриншоты




-

Этап 09. Гран-При Великобритании, Силверстоун (12.07.1992 г., "BBC Sport")

-Продолжительность: 02:06:13-Канал: BBC Sport-Качество: VHSRip
Формат: Matroska
Видео кодек: AVC
Аудио кодек: AC-3
Видео: AVC, 2000 Kbps, 720x576 pixels, 25.000 fps
Аудио: AC-3, 256 Kbps, 2 channels, 48.0 KHz-

Media Info


General
Unique ID : 173637925056367691176148894439494604530 (0x82A172ABD9C2F07286BC2666FCBB56F2)
Format : Matroska
Format version : Version 4 / Version 2
File size : 1.99 GiB
Duration : 2h 6mn
Overall bit rate : 2 258 Kbps
Movie name : 1992 British Grand Prix round 9 ru
Encoded date : UTC 2013-02-02 14:23:34
Writing application : mkvmerge v6.0.0 ('Coming Up For Air') built on Jan 20 2013 09:52:00
Writing library : libebml v1.3.0 + libmatroska v1.4.0
Video
ID : 1
Format : AVC
Format/Info : Advanced Video Codec
Format profile : [email protected]
Format settings, CABAC : Yes
Format settings, ReFrames : 2 frames
Codec ID : V_MPEG4/ISO/AVC
Duration : 2h 6mn
Bit rate : 2 000 Kbps
Width : 720 pixels
Height : 576 pixels
Display aspect ratio : 5:4
Original display aspect ratio : 1.563
Frame rate mode : Constant
Frame rate : 25.000 fps
Standard : PAL
Color space : YUV
Chroma subsampling : 4:2:0
Bit depth : 8 bits
Scan type : Progressive
Bits/(Pixel*Frame) : 0.193
Stream size : 1.73 GiB (87%)
Writing library : x264 core 129 r2230 1cffe9f
Encoding settings : cabac=1 / ref=2 / deblock=1:0:0 / analyse=0x3:0x113 / me=hex / subme=6 / psy=1 / psy_rd=1.00:0.00 / mixed_ref=1 / me_range=16 / chroma_me=1 / trellis=1 / 8x8dct=1 / cqm=0 / deadzone=21,11 / fast_pskip=1 / chroma_qp_offset=-2 / threads=6 / lookahead_threads=1 / sliced_threads=0 / nr=0 / decimate=1 / interlaced=0 / bluray_compat=0 / constrained_intra=0 / bframes=1 / b_pyramid=0 / b_adapt=1 / b_bias=0 / direct=1 / weightb=1 / open_gop=0 / weightp=2 / keyint=250 / keyint_min=25 / scenecut=40 / intra_refresh=0 / rc_lookahead=30 / rc=2pass / mbtree=1 / bitrate=2000 / ratetol=1.0 / qcomp=0.60 / qpmin=0 / qpmax=69 / qpstep=4 / cplxblur=20.0 / qblur=0.5 / ip_ratio=1.40 / aq=1:1.00
Language : English
Default : Yes
Forced : No
Audio
ID : 2
Format : AC-3
Format/Info : Audio Coding 3
Mode extension : CM (complete main)
Format settings, Endianness : Big
Codec ID : A_AC3
Duration : 2h 6mn
Bit rate mode : Constant
Bit rate : 256 Kbps
Channel(s) : 2 channels
Channel positions : Front: L R
Sampling rate : 48.0 KHz
Bit depth : 16 bits
Compression mode : Lossy
Stream size : 231 MiB (11%)
Language : Russian
Default : Yes
Forced : No
-

Скриншоты




-

Этап 10. Гран-При Германии, Хокенхайм (26.07.1992 г., "BBC Sport")

-Продолжительность: 01:40:17-Канал: BBC Sport-Качество: VHSRip
Формат: Audio Video Interleave
Видео кодек: XVID
Аудио кодек: MP3
Видео: XviD, 1865 Kbps, 576x432 pixels, 25.000 fps
Аудио: MPEG Audio, 256 Kbps, 2 channels, 44.1 KHz-

Media Info


General
Format : AVI
Format/Info : Audio Video Interleave
File size : 1.49 GiB
Duration : 1h 40mn
Overall bit rate : 2 131 Kbps
Movie name : 1992 Groosser Mobil 1 Preis von Deutschland round 10 ru
Writing application : VirtualDubMod 1.5.10.3 (build 2550/release)
Writing library : VirtualDubMod build 2550/release
Video
ID : 0
Format : MPEG-4 Visual
Format profile : Advanced [email protected]
Format settings, BVOP : 1
Format settings, QPel : No
Format settings, GMC : No warppoints
Format settings, Matrix : Default (H.263)
Muxing mode : Packed bitstream
Codec ID : XVID
Codec ID/Hint : XviD
Duration : 1h 40mn
Bit rate : 1 865 Kbps
Width : 576 pixels
Height : 432 pixels
Display aspect ratio : 4:3
Frame rate : 25.000 fps
Color space : YUV
Chroma subsampling : 4:2:0
Bit depth : 8 bits
Scan type : Progressive
Compression mode : Lossy
Bits/(Pixel*Frame) : 0.300
Stream size : 1.31 GiB (88%)
Writing library : XviD 1.1.0 (UTC 2005-11-22)
Audio
ID : 1
Format : MPEG Audio
Format version : Version 1
Format profile : Layer 3
Codec ID : 55
Codec ID/Hint : MP3
Duration : 1h 40mn
Bit rate mode : Constant
Bit rate : 256 Kbps
Channel(s) : 2 channels
Sampling rate : 44.1 KHz
Compression mode : Lossy
Stream size : 184 MiB (12%)
Alignment : Split accross interleaves
Interleave, duration : 40 ms (1.00 video frame)
Interleave, preload duration : 500 ms
-

Скриншоты




-

Этап 11. Гран-При Венгрии, Хунгароринг (16.08.1992 г., "BBC Sport")

-Продолжительность: 02:27:25-Канал: BBC Sport-Качество: VHSRip
Формат: Matroska
Видео кодек: AVC
Аудио кодек: AC-3
Видео: AVC, 1625 Kbps, 720x576 pixels, 25.000 fps
Аудио: AC-3, 256 Kbps, 2 channels, 48.0 KHz-

Media Info


General
Unique ID : 251043364114278044377744352194406171640 (0xBCDD3177704D4754983892917320C3F8)
Complete name : F:\Formula 1 media\1992 full ru\1992 Marlboro Magyar Nagydij round 11 ru.mkv
Format : Matroska
Format version : Version 4 / Version 2
File size : 1.94 GiB
Duration : 2h 27mn
Overall bit rate : 1 883 Kbps
Movie name : 1992 Marlboro Magyar Nagydij round 11 ru
Encoded date : UTC 2013-02-03 14:08:08
Writing application : mkvmerge v6.0.0 ('Coming Up For Air') built on Jan 20 2013 09:52:00
Writing library : libebml v1.3.0 + libmatroska v1.4.0
Video
ID : 1
Format : AVC
Format/Info : Advanced Video Codec
Format profile : [email protected]
Format settings, CABAC : Yes
Format settings, ReFrames : 2 frames
Codec ID : V_MPEG4/ISO/AVC
Duration : 2h 27mn
Bit rate : 1 625 Kbps
Width : 720 pixels
Height : 576 pixels
Display aspect ratio : 5:4
Frame rate mode : Constant
Frame rate : 25.000 fps
Standard : PAL
Color space : YUV
Chroma subsampling : 4:2:0
Bit depth : 8 bits
Scan type : Progressive
Bits/(Pixel*Frame) : 0.157
Stream size : 1.64 GiB (84%)
Writing library : x264 core 129 r2245 bc13772
Encoding settings : cabac=1 / ref=2 / deblock=1:0:0 / analyse=0x3:0x113 / me=hex / subme=6 / psy=1 / psy_rd=1.00:0.00 / mixed_ref=1 / me_range=16 / chroma_me=1 / trellis=1 / 8x8dct=1 / cqm=0 / deadzone=21,11 / fast_pskip=1 / chroma_qp_offset=-2 / threads=6 / lookahead_threads=1 / sliced_threads=0 / nr=0 / decimate=1 / interlaced=fake / bluray_compat=0 / constrained_intra=1 / bframes=1 / b_pyramid=0 / b_adapt=1 / b_bias=0 / direct=1 / weightb=1 / open_gop=1 / weightp=2 / keyint=250 / keyint_min=25 / scenecut=40 / intra_refresh=0 / rc_lookahead=30 / rc=2pass / mbtree=1 / bitrate=1625 / ratetol=1.0 / qcomp=0.60 / qpmin=0 / qpmax=69 / qpstep=4 / cplxblur=20.0 / qblur=0.5 / ip_ratio=1.40 / aq=1:1.00
Language : English
Default : Yes
Forced : No
Audio
ID : 2
Format : AC-3
Format/Info : Audio Coding 3
Mode extension : CM (complete main)
Format settings, Endianness : Big
Codec ID : A_AC3
Duration : 2h 27mn
Bit rate mode : Constant
Bit rate : 256 Kbps
Channel(s) : 2 channels
Channel positions : Front: L R
Sampling rate : 48.0 KHz
Bit depth : 16 bits
Compression mode : Lossy
Stream size : 270 MiB (14%)
Language : Russian
Default : Yes
Forced : No
-

Скриншоты




-

Этап 12. Гран-При Бельгии, Спа-Франкоршам (30.08.1992 г.)

-Продолжительность: 02:27:26-Качество: VHSRip
Формат: Matroska
Видео кодек: AVC
Аудио кодек: AC-3
Видео: AVC, 1705 Kbps, 720x576 pixels, 25.000 fps
Аудио: AC-3, 256 Kbps, 2 channels, 48.0 KHz-

Media Info


General
Unique ID : 61861147808313898891241588575131977065 (0x2E8A0610EDE279EF784FC2A0D1D4C569)
Format : Matroska
Format version : Version 2
File size : 2.02 GiB
Duration : 2h 27mn
Overall bit rate : 1 964 Kbps
Movie name : 1992 Grand Prix de Belgique round 12 ru
Writing application : Lavf54.61.104
Writing library : Lavf54.61.104
Video
ID : 1
Format : AVC
Format/Info : Advanced Video Codec
Format profile : [email protected]
Format settings, CABAC : Yes
Format settings, ReFrames : 2 frames
Codec ID : V_MPEG4/ISO/AVC
Duration : 2h 27mn
Bit rate : 1 705 Kbps
Width : 720 pixels
Height : 576 pixels
Display aspect ratio : 5:4
Original display aspect ratio : 1.563
Frame rate mode : Constant
Frame rate : 25.000 fps
Standard : PAL
Color space : YUV
Chroma subsampling : 4:2:0
Bit depth : 8 bits
Scan type : Progressive
Bits/(Pixel*Frame) : 0.164
Stream size : 1.72 GiB (85%)
Writing library : x264 core 129 r2230 1cffe9f
Encoding settings : cabac=1 / ref=2 / deblock=1:0:0 / analyse=0x3:0x113 / me=hex / subme=6 / psy=1 / psy_rd=1.00:0.00 / mixed_ref=1 / me_range=16 / chroma_me=1 / trellis=1 / 8x8dct=1 / cqm=0 / deadzone=21,11 / fast_pskip=1 / chroma_qp_offset=-2 / threads=6 / lookahead_threads=1 / sliced_threads=0 / nr=0 / decimate=1 / interlaced=fake / bluray_compat=0 / constrained_intra=1 / bframes=1 / b_pyramid=0 / b_adapt=1 / b_bias=0 / direct=1 / weightb=1 / open_gop=1 / weightp=2 / keyint=250 / keyint_min=25 / scenecut=40 / intra_refresh=0 / rc_lookahead=30 / rc=2pass / mbtree=1 / bitrate=1705 / ratetol=1.0 / qcomp=0.60 / qpmin=0 / qpmax=69 / qpstep=4 / cplxblur=20.0 / qblur=0.5 / ip_ratio=1.40 / aq=1:1.00
Language : English
Default : Yes
Forced : No
Audio
ID : 2
Format : AC-3
Format/Info : Audio Coding 3
Mode extension : CM (complete main)
Format settings, Endianness : Big
Codec ID : A_AC3
Duration : 2h 27mn
Bit rate mode : Constant
Bit rate : 256 Kbps
Channel(s) : 2 channels
Channel positions : Front: L R
Sampling rate : 48.0 KHz
Bit depth : 16 bits
Compression mode : Lossy
Delay relative to video : 1mn 5s
Stream size : 270 MiB (13%)
Language : Russian
Default : Yes
Forced : No
-

Скриншоты




-

Этап 13. Гран-При Италии, Монца (13.09.1992 г., "BBC Sport","PTP-Арена")

-Продолжительность: 02:08:12-Канал: BBC Sport, PTP-Арена-Качество: VHSRip
Формат: Matroska
Видео кодек: AVC
Аудио кодек: AC-3
Видео: AVC, 2181 Kbps, 720x576 pixels, 25.000 fps
Аудио: AC-3, 256 Kbps, 2 channels, 48.0 KHz-

Media Info


General
Unique ID : 241905806611706706332421367826986699711 (0xB5FD5D194F95CE33BC4B091EA4420BBF)
Complete name : F:\Formula 1 media\1992\1992 Pioneer 63o Gran Premio d'Italia round 13 ru.mkv
Format : Matroska
Format version : Version 4 / Version 2
File size : 2.18 GiB
Duration : 2h 8mn
Overall bit rate : 2 439 Kbps
Movie name : 1992 Pioneer 63o Gran Premio d'Italia round 13 ru
Encoded date : UTC 2013-01-31 03:09:13
Writing application : mkvmerge v6.0.0 ('Coming Up For Air') built on Jan 20 2013 09:52:00
Writing library : libebml v1.3.0 + libmatroska v1.4.0
Video
ID : 1
Format : AVC
Format/Info : Advanced Video Codec
Format profile : [email protected]
Format settings, CABAC : Yes
Format settings, ReFrames : 2 frames
Codec ID : V_MPEG4/ISO/AVC
Duration : 2h 8mn
Bit rate : 2 181 Kbps
Width : 720 pixels
Height : 576 pixels
Display aspect ratio : 5:4
Frame rate mode : Constant
Frame rate : 25.000 fps
Standard : PAL
Color space : YUV
Chroma subsampling : 4:2:0
Bit depth : 8 bits
Scan type : Progressive
Bits/(Pixel*Frame) : 0.210
Stream size : 1.91 GiB (88%)
Writing library : x264 core 106
Encoding settings : cabac=1 / ref=2 / deblock=0:0:0 / analyse=0x3:0x113 / me=dia / subme=9 / psy=1 / psy_rd=0.00:0.00 / mixed_ref=0 / me_range=16 / chroma_me=0 / trellis=1 / 8x8dct=1 / cqm=0 / deadzone=21,21 / fast_pskip=1 / chroma_qp_offset=0 / threads=1 / sliced_threads=0 / nr=0 / decimate=0 / interlaced=0 / constrained_intra=0 / bframes=2 / b_pyramid=0 / b_adapt=0 / b_bias=0 / direct=0 / weightb=0 / open_gop=0 / weightp=0 / keyint=500 / keyint_min=100 / scenecut=40 / intra_refresh=0 / rc=2pass / mbtree=0 / bitrate=2181 / ratetol=1.0 / qcomp=0.60 / qpmin=10 / qpmax=51 / qpstep=4 / cplxblur=20.0 / qblur=0.5 / ip_ratio=1.40 / pb_ratio=1.30 / aq=0
Language : English
Default : Yes
Forced : No
Audio
ID : 2
Format : AC-3
Format/Info : Audio Coding 3
Mode extension : CM (complete main)
Format settings, Endianness : Big
Codec ID : A_AC3
Duration : 2h 8mn
Bit rate mode : Constant
Bit rate : 256 Kbps
Channel(s) : 2 channels
Channel positions : Front: L R
Sampling rate : 48.0 KHz
Bit depth : 16 bits
Compression mode : Lossy
Stream size : 235 MiB (10%)
Language : Russian
Default : Yes
Forced : No
-

Скриншоты




-

Этап 14. Гран-При Португалии, Эшторил (27.09.1992 г., "BBC Sport","PTP-Арена")

-Продолжительность: 02:02:32-Канал: BBC Sport, PTP-Арена-Качество: VHSRip
Формат: Matroska
Видео кодек: AVC
Аудио кодек: AC-3
Видео: AVC, 2281 Kbps, 720x576 pixels, 25.000 fps
Аудио: AC-3, 256 Kbps, 2 channels, 48.0 KHz-

Media Info


Format : Matroska
Format version : Version 4 / Version 2
File size : 2.17 GiB
Duration : 2h 2mn
Overall bit rate : 2 539 Kbps
Movie name : 1992 SG Gigante Grande Premio de Portugal round 14 ru
Encoded date : UTC 2013-01-31 13:40:57
Writing application : mkvmerge v6.0.0 ('Coming Up For Air') built on Jan 20 2013 09:52:00
Writing library : libebml v1.3.0 + libmatroska v1.4.0
Video
ID : 1
Format : AVC
Format/Info : Advanced Video Codec
Format profile : [email protected]
Format settings, CABAC : Yes
Format settings, ReFrames : 2 frames
Codec ID : V_MPEG4/ISO/AVC
Duration : 2h 2mn
Bit rate : 2 281 Kbps
Width : 720 pixels
Height : 576 pixels
Display aspect ratio : 5:4
Frame rate mode : Constant
Frame rate : 25.000 fps
Standard : PAL
Color space : YUV
Chroma subsampling : 4:2:0
Bit depth : 8 bits
Scan type : Progressive
Bits/(Pixel*Frame) : 0.220
Stream size : 1.91 GiB (88%)
Writing library : x264 core 106
Encoding settings : cabac=1 / ref=2 / deblock=0:0:0 / analyse=0x3:0x113 / me=dia / subme=9 / psy=1 / psy_rd=0.00:0.00 / mixed_ref=0 / me_range=16 / chroma_me=0 / trellis=1 / 8x8dct=1 / cqm=0 / deadzone=21,21 / fast_pskip=1 / chroma_qp_offset=0 / threads=1 / sliced_threads=0 / nr=0 / decimate=0 / interlaced=0 / constrained_intra=0 / bframes=2 / b_pyramid=0 / b_adapt=0 / b_bias=0 / direct=0 / weightb=0 / open_gop=0 / weightp=0 / keyint=500 / keyint_min=100 / scenecut=40 / intra_refresh=0 / rc=2pass / mbtree=0 / bitrate=2281 / ratetol=1.0 / qcomp=0.60 / qpmin=10 / qpmax=51 / qpstep=4 / cplxblur=20.0 / qblur=0.5 / ip_ratio=1.40 / pb_ratio=1.30 / aq=0
Language : English
Default : Yes
Forced : No
Audio
ID : 2
Format : AC-3
Format/Info : Audio Coding 3
Mode extension : CM (complete main)
Format settings, Endianness : Big
Codec ID : A_AC3
Duration : 2h 2mn
Bit rate mode : Constant
Bit rate : 256 Kbps
Channel(s) : 2 channels
Channel positions : Front: L R
Sampling rate : 48.0 KHz
Bit depth : 16 bits
Compression mode : Lossy
Stream size : 224 MiB (10%)
Language : Russian
Default : Yes
Forced : No
-

Скриншоты




-

Этап 15. Гран-При Японии, Судзука (25.10.1992 г., "BBC Sport","RTL")

-Продолжительность: 02:20:17-Канал: BBC Sport, RTL-Качество: VHSRip
Формат: Audio Video Interleave
Видео кодек: XVID
Аудио кодек: MP3
Видео: XviD, 1296 Kbps, 512x384 pixels, 25.000 fps
Аудио: MPEG Audio, 128 Kbps, 2 channels, 48.0 KHz-

Media Info


General
Format : AVI
Format/Info : Audio Video Interleave
File size : 1.40 GiB
Duration : 2h 20mn
Overall bit rate : 1 434 Kbps
Movie name : 1992 Fuji Television Japanese Grand Prix round 15 ru
Writing application : VirtualDubMod 1.5.10.3 (build 2550/release)
Writing library : VirtualDubMod build 2550/release
Video
ID : 0
Format : MPEG-4 Visual
Format profile : Advanced [email protected]
Format settings, BVOP : 2
Format settings, QPel : No
Format settings, GMC : No warppoints
Format settings, Matrix : Default (H.263)
Muxing mode : Packed bitstream
Codec ID : XVID
Codec ID/Hint : XviD
Duration : 2h 20mn
Bit rate : 1 296 Kbps
Width : 512 pixels
Height : 384 pixels
Display aspect ratio : 4:3
Frame rate : 25.000 fps
Color space : YUV
Chroma subsampling : 4:2:0
Bit depth : 8 bits
Scan type : Progressive
Compression mode : Lossy
Bits/(Pixel*Frame) : 0.264
Stream size : 1.27 GiB (90%)
Writing library : XviD 1.1.0 (UTC 2005-11-22)
Audio
ID : 1
Format : MPEG Audio
Format version : Version 1
Format profile : Layer 3
Mode : Joint stereo
Mode extension : MS Stereo
Codec ID : 55
Codec ID/Hint : MP3
Duration : 2h 20mn
Bit rate mode : Constant
Bit rate : 128 Kbps
Channel(s) : 2 channels
Sampling rate : 48.0 KHz
Compression mode : Lossy
Stream size : 128 MiB (9%)
Alignment : Split accross interleaves
Interleave, duration : 40 ms (1.00 video frame)
Interleave, preload duration : 500 ms
-

Скриншоты




-

Этап 16. Гран-При Австралии, Аделаида (18.11.1992 г., "BBC Sport")

-Продолжительность: 02:08:34-Канал: BBC Sport-Качество: VHSRip
Формат: Matroska
Видео кодек: AVC
Аудио кодек: AC-3
Видео: AVC, 2174 Kbps, 720x576 pixels, 25.000 fps
Аудио: AC-3, 256 Kbps, 2 channels, 48.0 KHz-

Media Info


General
Unique ID : 219948326396578798087510400577582049434 (0xA57881BDCF0F5102AF2D4F3ABBAAA89A)
Format : Matroska
Format version : Version 4 / Version 2
File size : 2.18 GiB
Duration : 2h 8mn
Overall bit rate : 2 432 Kbps
Movie name : 1992 Foster's Australian Grand Prix round 16 ru
Encoded date : UTC 2013-01-30 13:38:43
Writing application : mkvmerge v6.0.0 ('Coming Up For Air') built on Jan 20 2013 09:52:00
Writing library : libebml v1.3.0 + libmatroska v1.4.0
Video
ID : 1
Format : AVC
Format/Info : Advanced Video Codec
Format profile : [email protected]
Format settings, CABAC : Yes
Format settings, ReFrames : 2 frames
Codec ID : V_MPEG4/ISO/AVC
Duration : 2h 8mn
Bit rate : 2 174 Kbps
Width : 720 pixels
Height : 576 pixels
Display aspect ratio : 5:4
Frame rate mode : Constant
Frame rate : 25.000 fps
Standard : PAL
Color space : YUV
Chroma subsampling : 4:2:0
Bit depth : 8 bits
Scan type : Progressive
Bits/(Pixel*Frame) : 0.210
Stream size : 1.91 GiB (87%)
Writing library : x264 core 106
Encoding settings : cabac=1 / ref=2 / deblock=0:0:0 / analyse=0x3:0x113 / me=dia / subme=9 / psy=1 / psy_rd=0.00:0.00 / mixed_ref=0 / me_range=16 / chroma_me=0 / trellis=1 / 8x8dct=1 / cqm=0 / deadzone=21,21 / fast_pskip=1 / chroma_qp_offset=0 / threads=1 / sliced_threads=0 / nr=0 / decimate=0 / interlaced=0 / constrained_intra=0 / bframes=2 / b_pyramid=0 / b_adapt=0 / b_bias=0 / direct=0 / weightb=0 / open_gop=0 / weightp=0 / keyint=500 / keyint_min=100 / scenecut=40 / intra_refresh=0 / rc=2pass / mbtree=0 / bitrate=2174 / ratetol=1.0 / qcomp=0.60 / qpmin=10 / qpmax=51 / qpstep=4 / cplxblur=20.0 / qblur=0.5 / ip_ratio=1.40 / pb_ratio=1.30 / aq=0
Language : English
Default : Yes
Forced : No
Audio
ID : 2
Format : AC-3
Format/Info : Audio Coding 3
Mode extension : CM (complete main)
Format settings, Endianness : Big
Codec ID : A_AC3
Duration : 2h 8mn
Bit rate mode : Constant
Bit rate : 256 Kbps
Channel(s) : 2 channels
Channel positions : Front: L R
Sampling rate : 48.0 KHz
Bit depth : 16 bits
Compression mode : Lossy
Stream size : 235 MiB (11%)
Language : Russian
Default : Yes
Forced : No
-

Скриншоты




-


Последний раз редактировалось: M.J. (2013-08-21 00:12), всего редактировалось 1 раз

Создавать темы 02-Авг-2013 19:17

[Профиль]  [ЛС] 

uTorrent

Стаж: 4 года 11 месяцев

Сообщений: 149

Симпатии: 1

Совсем др. люди были в то время. но время золотое!))) но и в 2012 было очень интересно когда были почти все равны. этот сезон не так равен как в 2012. в 2014 будут серьезные перемены. посмотрим что будет. и какие будут сюрпризы. не ожидал что макларен будет в этом сезоне так плохо а мерседес хорошо. но и лотус хорош.

Создавать темы 02-Авг-2013 19:21

[Профиль]  [ЛС] 

de.mixx

Стаж: 5 лет 8 месяцев

Сообщений: 7

что за дела? куда пропали раздачи юзера "barcamol"?

Создавать темы 02-Авг-2013 20:59

[Профиль]  [ЛС] 

Иван

Стаж: 6 лет 8 месяцев

Сообщений: 16

Точно,вообще не понятно.Может еще появится?

Создавать темы 02-Авг-2013 23:19

[Профиль]  [ЛС] 

Иван

Стаж: 6 лет 8 месяцев

Сообщений: 16

А то жалко,он только до 1996 выложил,хотелось бы и остальные тоже.

Создавать темы 02-Авг-2013 23:23

[Профиль]  [ЛС] 

Иван

Стаж: 6 лет 8 месяцев

Сообщений: 16

Еще будут сезоны?1996 и следующие.

Создавать темы 03-Авг-2013 08:57

[Профиль]  [ЛС] 

M.J. ®

Стаж: 4 года 1 месяц

Сообщений: 25

Симпатии: 8

~~~

Создавать темы 30-Ноя-2015 18:21

[Профиль]  [ЛС] 
Показать сообщения:    
Ответить на тему

Текущее время: 19-Сен 20:29

Часовой пояс: UTC + 5



Вы не можете начинать темы
Вы не можете отвечать на сообщения
Вы не можете редактировать свои сообщения
Вы не можете удалять свои сообщения
Вы не можете голосовать в опросах
Вы не можете прикреплять файлы к сообщениям
Вы не можете скачивать файлы