Парфюмер: История одного убийцы / Perfume: The Story of a murderer (Том Тыквер) [2006 г., Фэнтези / Драма, BDRip]

Ответить на тему
 

Kubaev_Muhiddin ®

Стаж: 6 лет 10 месяцев

Сообщений: 104

Симпатии: 34

Парфюмер История одного убийцы - Perfume The story of a murdererОн жил, чтобы найти красоту. Он убил, чтобы овладеть ею. Год выпуска: 2006
Страна: США, Германия, Франция, Испания
Жанр: Фэнтези / Драма
Продолжительность: 02:27:25
Перевод: Профессиональный (полное дублирование)
Субтитры: Russian, English
Режиссер: Том Тыквер
Продюссер: Бернд Айхингер, Хулио Фернандес, Тереза Гефалл
Сценарий: Эндрю Биркин, Бернд Айхингер, Том Тыквер
Премьера в мире: 7 сентября 2006
Бюджет: 60 000 000 $
Сборы в США: 2 223 293 $
Сборы в мире: + 132 816 631 $ = 135 039 924 $
В ролях: Бен Уишоу, Дастин Хоффман, Алан Рикман, Рейчел Херд-Вуд, Биргит Минихмайр, Шан Томас, Тимоти Дэвис, Дора Романо, Сара Форестье, Дэвид Колдер
Описание: Жестокий, никогда не знавший любви, сирота Жан-Батист Гренуй настоящих успехов достиг лишь на одном поприще — среди парфюмеров ему никогда не было равных. По его духам сходит с ума весь высший свет, не подозревая о том, какой страшной ценой будет получен последний, идеальный аромат.
Качество: BDRip
Формат: MKV
Видео кодек: V_MPEG4/ISO/AVC
Аудио кодек: AC-3
Видео: MPEG4 Video (H264) 1916x820 23.976 fps 3 157 kbps
Аудио#1: Dolby AC3 48000 Hz 6ch. 640 kbps, Russian
Аудио#2: Dolby AC3 48000 Hz 6ch. 448 kbps, English
Cубтитр#1: S_VOBSUB Russian
Cубтитр#2: S_VOBSUB English

Медиа инфо

Видео
Идентификатор : 1
Формат : AVC
Формат/Информация : Advanced Video Codec
Профиль формата : [email protected]
Параметр CABAC формата : Да
Параметр ReFrames формата : 16 кадров
Режим смешивания : Header stripping
Идентификатор кодека : V_MPEG4/ISO/AVC
Продолжительность : 2 ч. 27 м.
Битрейт : 3157 Кбит/сек
Ширина : 1916 пикселей
Высота : 820 пикселей
Соотношение сторон : 2,35:1
Режим частоты кадров : Постоянный
Частота кадров : 23,976 кадра/сек
Цветовое пространство : YUV
Субдискретизация насыщенности : 4:2:0
Битовая глубина : 8 бит
Тип развёртки : Прогрессивная
Бит/(Пиксели*Кадры) : 0.084
Размер потока : 3,17 Гбайт (72%)
Заголовок : Perfume The Story of a Murderer. 2006.BDRip.1080p
Библиотека кодирования : x264 core 112 r1834 a51816a
Настройки программы : cabac=1 / ref=16 / deblock=1:-3:-3 / analyse=0x3:0x133 / me=umh / subme=7 / psy=1 / psy_rd=1.00:0.00 / mixed_ref=1 / me_range=32 / chroma_me=1 / trellis=2 / 8x8dct=1 / cqm=0 / deadzone=21,11 / fast_pskip=1 / chroma_qp_offset=-2 / threads=6 / sliced_threads=0 / nr=0 / decimate=1 / interlaced=0 / constrained_intra=0 / bframes=3 / b_pyramid=2 / b_adapt=1 / b_bias=0 / direct=1 / weightb=1 / open_gop=0 / weightp=2 / keyint=250 / keyint_min=23 / scenecut=40 / intra_refresh=0 / rc_lookahead=40 / rc=2pass / mbtree=1 / bitrate=3157 / ratetol=1.0 / qcomp=0.80 / qpmin=10 / qpmax=51 / qpstep=4 / cplxblur=20.0 / qblur=0.5 / ip_ratio=1.40 / aq=1:1.00
Язык : English
Default : Да
Forced : Нет
Аудио #1
Идентификатор : 2
Формат : AC-3
Формат/Информация : Audio Coding 3
Расширение режима : CM (complete main)
Параметр Endianness формата : Big
Режим смешивания : Header stripping
Идентификатор кодека : A_AC3
Продолжительность : 2 ч. 27 м.
Вид битрейта : Постоянный
Битрейт : 640 Кбит/сек
Каналы : 6 каналов
Расположение каналов : Front: L C R, Side: L R, LFE
Частота : 48,0 КГц
Битовая глубина : 16 бит
Метод сжатия : С потерями
Размер потока : 675 Мбайт (15%)
Заголовок : Дубляж
Язык : Russian
Default : Да
Forced : Нет
Аудио #2
Идентификатор : 3
Формат : AC-3
Формат/Информация : Audio Coding 3
Расширение режима : CM (complete main)
Параметр Endianness формата : Big
Режим смешивания : Header stripping
Идентификатор кодека : A_AC3
Продолжительность : 2 ч. 27 м.
Вид битрейта : Постоянный
Битрейт : 448 Кбит/сек
Каналы : 6 каналов
Расположение каналов : Front: L C R, Side: L R, LFE
Частота : 48,0 КГц
Битовая глубина : 16 бит
Метод сжатия : С потерями
Размер потока : 472 Мбайт (11%)
Заголовок : Оригинал
Язык : English
Default : Нет
Forced : Нет
Текст #1
Идентификатор : 4
Формат : VobSub
Режим смешивания : zlib
Идентификатор кодека : S_VOBSUB
Идентификатор кодека/Информация : The same subtitle format used on DVDs
Язык : Russian
Default : Нет
Forced : Нет
Текст #2
Идентификатор : 5
Формат : VobSub
Режим смешивания : zlib
Идентификатор кодека : S_VOBSUB
Идентификатор кодека/Информация : The same subtitle format used on DVDs
Язык : English
Default : Нет
Forced : Нет

Скриншоты






Последний раз редактировалось: Kubaev_Muhiddin (2013-08-13 10:30), всего редактировалось 1 раз

Создавать темы 03-Авг-2013 00:00

[Профиль]  [ЛС] 

Дмитриев

Стаж: 7 лет 5 месяцев

Сообщений: 139

Симпатии: 12

Kubaev_Muhiddin, Огого крут залил всё токи
завтра подержу тебя


Последний раз редактировалось: Дмитриев (2013-08-09 00:43), всего редактировалось 1 раз

Создавать темы 03-Авг-2013 01:37

[Профиль]  [ЛС] 

Maxwn

Стаж: 6 лет 10 месяцев

Сообщений: 243

Симпатии: 10

хороший фильм)

Создавать темы 03-Авг-2013 07:25

[Профиль]  [ЛС] 

rascolnikov

Стаж: 4 года 3 месяца

Сообщений: 60

Симпатии: 2

спасибо большое за фильм :-)

Создавать темы 07-Авг-2013 03:47

[Профиль]  [ЛС] 

PIXEL 100

Стаж: 4 года 6 месяцев

Сообщений: 49

Симпатии: 8

адреналин XP не уходите с раздачи люди

Создавать темы 08-Авг-2013 21:23

[Профиль]  [ЛС] 

rascolnikov

Стаж: 4 года 3 месяца

Сообщений: 60

Симпатии: 2

я не ухожу :-)

Создавать темы 08-Авг-2013 22:07

[Профиль]  [ЛС] 

D/T

Стаж: 7 лет 4 месяца

Сообщений: 6

Зачётный фильм ay

Создавать темы 09-Авг-2013 01:41

[Профиль]  [ЛС] 

Kubaev_Muhiddin ®

Стаж: 6 лет 10 месяцев

Сообщений: 104

Симпатии: 34

Вот вам ешё релиз Ип Ман Трилогия - Ip Man Trilogy (Вилсон Йип, Херман Яу) [2008-2010г.г, Боевик / Драма / Биография / История, BDRip]

Создавать темы 10-Авг-2013 01:39

[Профиль]  [ЛС] 

Evgeny99

Стаж: 6 лет 10 месяцев

Сообщений: 82

Симпатии: 3

Шедевр.

Создавать темы 09-Янв-2014 20:07

[Профиль]  [ЛС] 

ilya ganyushin

Стаж: 5 лет 9 месяцев

Сообщений: 19

Симпатии: 2

плиз дайте скорости

Создавать темы 06-Фев-2016 18:58

[Профиль]  [ЛС] 

ilya ganyushin

Стаж: 5 лет 9 месяцев

Сообщений: 19

Симпатии: 2

кто нибудь встаньте на раздачу

Создавать темы 09-Фев-2016 19:09

[Профиль]  [ЛС] 

ilya ganyushin

Стаж: 5 лет 9 месяцев

Сообщений: 19

Симпатии: 2

скорость маленькая

Создавать темы 09-Фев-2016 19:09

[Профиль]  [ЛС] 

ilya ganyushin

Стаж: 5 лет 9 месяцев

Сообщений: 19

Симпатии: 2

дайте скорости плиз

Создавать темы 12-Фев-2016 17:39

[Профиль]  [ЛС] 

ilya ganyushin

Стаж: 5 лет 9 месяцев

Сообщений: 19

Симпатии: 2

плиз встаньть на раздачу

Создавать темы 15-Фев-2016 17:08

[Профиль]  [ЛС] 

ilya ganyushin

Стаж: 5 лет 9 месяцев

Сообщений: 19

Симпатии: 2

очень нужно скачать фильм

Создавать темы 15-Фев-2016 17:08

[Профиль]  [ЛС] 
Показать сообщения:    
Ответить на тему

Текущее время: 23-Ноя 10:38

Часовой пояс: UTC + 5



Вы не можете начинать темы
Вы не можете отвечать на сообщения
Вы не можете редактировать свои сообщения
Вы не можете удалять свои сообщения
Вы не можете голосовать в опросах
Вы не можете прикреплять файлы к сообщениям
Вы не можете скачивать файлы