Virtual DJ. Вводный видеокурс [2010 г.]

Ответить на тему
 

ziyod19-91 ®

Стаж: 5 лет 9 месяцев

Сообщений: 27

Симпатии: 1

Virtual DJ. Вводный видеокурс
от Nikita Stalker
-- Производитель: Zwook.ru
Автор: Nikita Stalker
Год выпуска: 2010
Продолжительность: 23:29
Язык: русский
Версия Virtual DJ: 7.0-Описание: Ваш компьютер — это полноценная DJ-станция. Осталось только установить нужный софт и научиться с ним работать. Virtual DJ — одна из самых популярных программ для диджеинга. С этим курсом, вы научитесь базовым техникам диджеинга в этой программе. Курс будет полезен для начинающих пользователей. Из курса вы узнаете:
  • основные отличия программы от других средств диджеинга;
  • как настроить программу для начала работы;
  • основы сведения;
  • запись микса.
-Формат видео: MPEG-4
Видео кодек: AVC
Аудио кодек: AAC
Видео: MPEG4 Video (AVC); 1024x640 (8:5); 15.000 fps; 1212 Kbps; 0.123 bit/(pixel*frame)
Аудио: AAC; 44.1 kHz; 2ch (Front: L R); 128 Kbps

MediaInfo

General
Complete name                            : Virtual DJ. Вводный видеокурс.mp4
Format                                   : MPEG-4
Format profile                           : QuickTime
Codec ID                                 : qt
File size                                : 225 MiB
Duration                                 : 23mn 29s
Overall bit rate                         : 1 338 Kbps
Encoded date                             : UTC 2010-11-29 09:02:55
Tagged date                              : UTC 2010-11-29 09:03:19
Writing library                          : Apple QuickTime
com.apple.quicktime.software             : ScreenFlow
Video
ID                                       : 2
Format                                   : AVC
Format/Info                              : Advanced Video Codec
Format profile                           : [email protected]
Format settings, CABAC                   : No
Format settings, ReFrames                : 2 frames
Codec ID                                 : avc1
Codec ID/Info                            : Advanced Video Coding
Duration                                 : 23mn 29s
Source duration                          : 23mn 29s
Bit rate                                 : 1 212 Kbps
Width                                    : 1 024 pixels
Height                                   : 640 pixels
Display aspect ratio                     : 1.600
Frame rate mode                          : Constant
Frame rate                               : 15.000 fps
Color space                              : YUV
Chroma subsampling                       : 4:2:0
Bit depth                                : 8 bits
Scan type                                : Progressive
Bits/(Pixel*Frame)                       : 0.123
Stream size                              : 204 MiB (91%)
Source stream size                       : 204 MiB (91%)
Language                                 : English
Encoded date                             : UTC 2010-11-29 08:18:48
Tagged date                              : UTC 2010-11-29 09:03:19
Color primaries                          : BT.709
Transfer characteristics                 : BT.709
Matrix coefficients                      : BT.709
Audio
ID                                       : 1
Format                                   : AAC
Format/Info                              : Advanced Audio Codec
Format profile                           : LC
Codec ID                                 : 40
Duration                                 : 23mn 29s
Source duration                          : 23mn 29s
Bit rate mode                            : Constant
Bit rate                                 : 128 Kbps
Channel(s)                               : 2 channels
Channel positions                        : Front: L R
Sampling rate                            : 44.1 KHz
Compression mode                         : Lossy
Stream size                              : 20.7 MiB (9%)
Source stream size                       : 20.7 MiB (9%)
Language                                 : English
Encoded date                             : UTC 2010-11-29 08:18:48
Tagged date                              : UTC 2010-11-29 09:03:19

Скриншоты








Скринлист

Если в релизе не открываются скриншоты, постер, нет сида или нашли ошибку, пишите в Л/С

Создавать темы 03-Авг-2013 00:53

[Профиль]  [ЛС] 

New-Release

Стаж: 5 лет 4 месяца

Сообщений: 1713

Симпатии: 345

думаю в заголовке стоило бы убрать сторонний сайт (ссылку)

Создавать темы 03-Авг-2013 01:23

[Профиль]  [ЛС] 

papay68

Стаж: 5 лет 8 месяцев

Сообщений: 10

Диджейям это не нужно, а кто увлекается микшированием поможет, а так курс общие понятия, вообщем для среднего уровня

Создавать темы 03-Авг-2013 20:35

[Профиль]  [ЛС] 

MiamiBoy

Стаж: 6 лет 5 месяцев

Сообщений: 136

Симпатии: 7

papay68, само собой, тот кто зарабатывает на этом покупают железки.
Тобиш, диджеи увлекайтесь =)
Nikita Stalker, тот еще пиарщик.

Создавать темы 04-Авг-2013 08:15

[Профиль]  [ЛС] 
Показать сообщения:    
Ответить на тему

Текущее время: 19-Окт 15:45

Часовой пояс: UTC + 5



Вы не можете начинать темы
Вы не можете отвечать на сообщения
Вы не можете редактировать свои сообщения
Вы не можете удалять свои сообщения
Вы не можете голосовать в опросах
Вы не можете прикреплять файлы к сообщениям
Вы не можете скачивать файлы