Arsenal - Season Review 2005-2006 [2006 г., Футбол, DVDRip] [2006 г., Футбол, DVDRip]

Ответить на тему
 

nasri91 ®

Стаж: 4 года 9 месяцев

Сообщений: 48

Симпатии: 1

Arsenal - Season Review 2005-2006 [2006 г., Футбол, DVDRip]
Год выпуска: 2006
Вид спорта: Футбол
Участники: Арсенал Лондон
Продолжительность: 2:11:00
Комментарий: Профессиональный (одноголосый)
Описание: Обзор особого сезона.Последний Сезон на Хайбери. Слезы после финала Лиги Чемпионов в Париже. И как обчно все голы и лучшие моменты сезона.
Качество: DVDRip
Формат: AVI
Видео кодек: XviD
Аудио кодек: MPEG Audio
Видео: Битрейт : 598 Кбит/сек 480х272 16/9 25.000 кадр/сек
Аудио: 128 Кбит/сек 48 КГц 16 бит LAME3.97b

скриншоты

Медиа Инфо

D:\Хусн ад-Дин\Arsenal - Season Review 2005-2006\Arsenal - Season Review 2005-2006.avi
General
Complete name : D:\Хусн ад-Дин\Arsenal - Season Review 2005-2006\Arsenal - Season Review 2005-2006.avi
Format : AVI
Format/Info : Audio Video Interleave
File size : 699 MiB
Duration : 2h 11mn
Overall bit rate : 745 Kbps
Writing application : FairUse Wizard - http://fairusewizard.com
Writing library : The best and REALLY easy backup tool
Video #0
ID : 0
Format : MPEG-4 Visual
Format profile : Advanced Si[email protected]
Format settings, BVOP : Yes
Format settings, QPel : No
Format settings, GMC : No warppoints
Format settings, Matrix : Default (H.263)
Muxing mode : Packed bitstream
Codec ID : XVID
Codec ID/Hint : XviD
Duration : 2h 11mn
Bit rate : 607 Kbps
Width : 480 pixels
Height : 272 pixels
Display aspect ratio : 16:9
Frame rate : 25.000 fps
Resolution : 8 bits
Colorimetry : 4:2:0
Scan type : Progressive
Bits/(Pixel*Frame) : 0.186
Stream size : 570 MiB (82%)
Writing library : XviD 1.1.0 (UTC 2005-11-22)
Audio #1
ID : 1
Format : MPEG Audio
Format version : Version 1
Format profile : Layer 3
Mode : Joint stereo
Format_Settings_ModeExtension : MS Stereo
Codec ID : 55
Codec ID/Hint : MP3
Duration : 2h 11mn
Bit rate mode : Constant
Bit rate : 128 Kbps
Channel(s) : 2 channels
Sampling rate : 48.0 KHz
Stream size : 120 MiB (17%)
Alignment : Aligned on interleaves
Interleave, duration : 40 ms (1.00 video frame)
Interleave, preload duration : 504 ms
Writing library : LAME3.97b
Encoding settings : -m j -V 4 -q 2 -lowpass 17 -b 128

Создавать темы 03-Авг-2013 21:23

[Профиль]  [ЛС] 

nasri91 ®

Стаж: 4 года 9 месяцев

Сообщений: 48

Симпатии: 1

сами наверное не качаете у меня стоял на раздаче в четверг целый день

Создавать темы 09-Авг-2013 11:52

[Профиль]  [ЛС] 
Показать сообщения:    
Ответить на тему

Текущее время: 23-Окт 13:08

Часовой пояс: UTC + 5



Вы не можете начинать темы
Вы не можете отвечать на сообщения
Вы не можете редактировать свои сообщения
Вы не можете удалять свои сообщения
Вы не можете голосовать в опросах
Вы не можете прикреплять файлы к сообщениям
Вы не можете скачивать файлы