Гостья / The Host (Эндрю Никкол) [2013 г., фантастика, драма, мелодрама, BDRip 1080p] | Лицензия

Ответить на тему
 

CoolDX ®

Стаж: 6 лет 10 месяцев

Сообщений: 196

Симпатии: 59

Гостья / The Host
«You will be one of us.»
- Год выпуска: 2013
Страна: США
Студия: Chockstone Pictures, Nick Wechsler Productions, Silver Reel
Жанр: фантастика, драма, мелодрама
Продолжительность: 02:05:38
Озвучивание: Дублированное [Лицензия]
Режиссер: Эндрю Никкол
В ролях: Сирша Ронан, Диана Крюгер, Макс Айронс, Джейк Абель, Уилльям Херт, Фрэнсис Фишер, Бойд Холбрук, Чандлер Кантербери, Боким Вудбайн, Маркус Лайл Браун, Скотт Лоренс, Андреа Фрэнкл, Райден Грир
Роли дублировали: Анастасия Жаркова, Сергей Смирнов, Михаил Тихонов, Полина Щербакова, Владимир Антоник, Даниил Трещов, Ирина Пономарева, Владислав Копп, Илья Исаев, Алексей Борзунов, Валентина Абрамова, Олег Новиков, Андрей Казанцев
Описание: Земля — в опасности! Наше место скоро займут Души — лишенные плотской оболочки пришельцы, вытесняющие из человеческих тел разум и замещающие его разумом собственным. Большая часть человечества уже погибла. Немногие выжившие скрываются в жалкой попытке отсрочить неизбежное… Теперь Душа пытается захватить тело юной Мелани. Однако происходит неожиданное: Мелани и ее Душа вынуждены сосуществовать в одном теле. Гостье надлежало выследить и выдать землян-повстанцев, с которыми связана Мелани, но она помогает своей носительнице.

Альтернативное описание:

«Гостья» – экранизация одноимённой книги Стефани Майер – той самой, что своим циклом «Сумерки» в одиночку начала бум литературы и кинематографа, нацеленных на девушек. Но если культовая сага перевернула представление женского населения Земли о городском фэнтези, то своим новым романом (и его двумя потенциальными сиквелами) Стефани нацелилась на фантастику.
На Земле будущего человечеству в его привычном виде практически не осталось места. Инопланетяне-паразиты, Души, наводнили планету, проникая в тела живущих на ней людей и заменяя собой оригинальные личности. Очень скоро люди становятся вымирающим видом и из последних сил отбиваются от наслаждающихся завоёванной планетой Душ.
Главная героиня «Гостьи» — Мелани — одна из немногих выживших. Она встречает Джареда Хоу, они влюбляются друг в друга, и даже жестокий окружающий мир, кажется, не может помешать их счастью... Пока девушку не ловят и не поселяют в её тело Душу по имени Анни, надеясь через воспоминания Мелани узнать местонахождение прибежища людей.
Вот только на этот раз результат подселения оказывается неожиданным: Мелани не исчезает до конца, и теперь они с Анни вынуждены сосуществовать в одном теле, деля мысли, воспоминания... и, конечно же, чувства. Чувства, которые убеждают Анни предать свою расу и вместо этого помочь ненавидящим её людям.
IMDB рейтинг: 5.7/10 (38,512 голос)
Кинопоиск рейтинг: 6.313 (18,116 голосов)
Формат: MKV
Качество: BDRip 1080p
Видео: AVC / [email protected] / 2 pass / 23,976 fps / 1920x800p (2,40:1) / 7,5 Mbps / 0.204
Аудио #1: AC3 / 5.1 ch / 448 kbps / Русский дубляж, R5
Аудио #2: AC3 / 5.1 ch / 640 kbps / Английский original, BD US
Субтитры: [softsub SRT] Русские Full, R5 / Английские Full, BD US / Английские SDH, BD US / Английские SDH-COLOR, BD US
Дополнительно: Сохранены оригинальные чаптеры (главы) как на Blu-ray-Релиз подготовлен при поддержке проекта CoolDX-

MediaInfo

The.Host.2013.DUAL.BDRip.1080p.CoolDX.mkv
General
Unique ID : 177342484884621225423604071667869689389 (0x856AEB92904909658C3E0CCB2C1C262D)
Complete name : The.Host.2013.DUAL.BDRip.1080p.CoolDX.mkv
Format : Matroska
Format version : Version 4 / Version 2
File size : 7.53 GiB
Duration : 2h 5mn
Overall bit rate : 8 585 Kbps
Movie name : The Host (2013) | Release from CoolDX
Encoded date : UTC 2013-07-19 10:30:04
Writing application : mkvmerge v6.3.0 ('You can't stop me!') built on Jun 28 2013 20:09:41
Writing library : libebml v1.3.0 + libmatroska v1.4.0
Video #1
ID : 1
Format : AVC
Format/Info : Advanced Video Codec
Format profile : [email protected]
Format settings, CABAC : Yes
Format settings, ReFrames : 4 frames
Codec ID : V_MPEG4/ISO/AVC
Duration : 2h 5mn
Bit rate : 7 500 Kbps
Width : 1 920 pixels
Height : 800 pixels
Display aspect ratio : 2.40:1
Frame rate mode : Constant
Frame rate : 23.976 fps
Color space : YUV
Chroma subsampling : 4:2:0
Bit depth : 8 bits
Scan type : Progressive
Bits/(Pixel*Frame) : 0.204
Stream size : 6.43 GiB (85%)
Title : Release from CoolDX
Writing library : x264 core 133 r2334 a3ac64b
Encoding settings : cabac=1 / ref=4 / deblock=1:-2:-2 / analyse=0x3:0x113 / me=umh / subme=10 / psy=1 / psy_rd=1.00:0.15 / mixed_ref=1 / me_range=16 / chroma_me=1 / trellis=2 / 8x8dct=1 / cqm=0 / deadzone=21,11 / fast_pskip=0 / chroma_qp_offset=-3 / threads=3 / lookahead_threads=1 / sliced_threads=0 / nr=0 / decimate=0 / interlaced=0 / bluray_compat=0 / constrained_intra=0 / bframes=8 / b_pyramid=2 / b_adapt=2 / b_bias=0 / direct=3 / weightb=1 / open_gop=0 / weightp=2 / keyint=240 / keyint_min=24 / scenecut=40 / intra_refresh=0 / rc_lookahead=60 / rc=2pass / mbtree=0 / bitrate=7500 / ratetol=1.0 / qcomp=0.65 / qpmin=0 / qpmax=69 / qpstep=4 / cplxblur=20.0 / qblur=0.5 / vbv_maxrate=40000 / vbv_bufsize=30000 / nal_hrd=none / ip_ratio=1.40 / pb_ratio=1.30 / aq=1:0.80
Language : English
Default : Yes
Forced : No
Audio #2
ID : 2
Format : AC-3
Format/Info : Audio Coding 3
Mode extension : CM (complete main)
Format settings, Endianness : Big
Codec ID : A_AC3
Duration : 2h 5mn
Bit rate mode : Constant
Bit rate : 448 Kbps
Channel(s) : 6 channels
Channel positions : Front: L C R, Side: L R, LFE
Sampling rate : 48.0 KHz
Bit depth : 16 bits
Compression mode : Lossy
Stream size : 403 MiB (5%)
Title : AC3 5.1 @ 448 kbps RUS
Language : Russian
Default : Yes
Forced : No
Audio #3
ID : 3
Format : AC-3
Format/Info : Audio Coding 3
Mode extension : CM (complete main)
Format settings, Endianness : Big
Codec ID : A_AC3
Duration : 2h 5mn
Bit rate mode : Constant
Bit rate : 640 Kbps
Channel(s) : 6 channels
Channel positions : Front: L C R, Side: L R, LFE
Sampling rate : 48.0 KHz
Bit depth : 16 bits
Compression mode : Lossy
Stream size : 575 MiB (7%)
Title : AC3 5.1 @ 640 kbps ENG
Language : English
Default : No
Forced : No
Text #4
ID : 4
Format : UTF-8
Codec ID : S_TEXT/UTF8
Codec ID/Info : UTF-8 Plain Text
Title : Full, R5
Language : Russian
Default : No
Forced : No
Text #5
ID : 5
Format : UTF-8
Codec ID : S_TEXT/UTF8
Codec ID/Info : UTF-8 Plain Text
Title : Full, BD US
Language : English
Default : No
Forced : No
Text #6
ID : 6
Format : UTF-8
Codec ID : S_TEXT/UTF8
Codec ID/Info : UTF-8 Plain Text
Title : SDH, BD US
Language : English
Default : No
Forced : No
Text #7
ID : 7
Format : UTF-8
Codec ID : S_TEXT/UTF8
Codec ID/Info : UTF-8 Plain Text
Title : SDH-COLOR, BD US
Language : English
Default : No
Forced : No
Menu
00:00:00.000 : :Chapter 01
00:06:03.529 : :Chapter 02
00:12:12.398 : :Chapter 03
00:20:29.770 : :Chapter 04
00:25:19.726 : :Chapter 05
00:31:01.234 : :Chapter 06
00:35:37.135 : :Chapter 07
00:40:02.316 : :Chapter 08
00:45:39.153 : :Chapter 09
00:51:08.482 : :Chapter 10
00:55:26.197 : :Chapter 11
01:03:49.951 : :Chapter 12
01:13:51.760 : :Chapter 13
01:18:54.354 : :Chapter 14
01:27:54.143 : :Chapter 15
01:32:36.467 : :Chapter 16
01:37:53.284 : :Chapter 17
01:46:51.696 : :Chapter 18
01:52:23.528 : :Chapter 19
01:57:30.668 : :Chapter 20
-

Скриншоты













Создавать темы 03-Авг-2013 23:34

[Профиль]  [ЛС] 
Показать сообщения:    
Ответить на тему

Текущее время: 18-Ноя 13:30

Часовой пояс: UTC + 5



Вы не можете начинать темы
Вы не можете отвечать на сообщения
Вы не можете редактировать свои сообщения
Вы не можете удалять свои сообщения
Вы не можете голосовать в опросах
Вы не можете прикреплять файлы к сообщениям
Вы не можете скачивать файлы