Смурфики 2 / The Smurfs 2 (Раджа Госнелл) [2013г.; Мультфильм, фэнтези, комедия, семейный; DVDRip] [Лицензия]

Ответить на тему
 

Suxrob89 ®

Стаж: 7 лет 1 месяц

Сообщений: 933

Симпатии: 564

Смурфики 2 / The Smurfs 2«Увидеть Париж и... осмурфеть!»- Страна: США
Жанр: мультфильм, фэнтези, комедия, семейный
Продолжительность: 01:40:23
Год выпуска: 2013
Перевод: Дублированное [Лицензия]-Режиссёр: Раджа Госнелл / Raja Gosnell-Роли озвучивали: Нил Патрик Харрис, Брендан Глисон, Джейма Мейс, Хэнк Азария, Джейкоб Тремблэ, Нэнси О’Делл, Карим Бабин, Гастон Ховард, Жослин Бланчард, Эрика Розенбаум-Роли дублировали: Нюша Шурочкина-Описание: Гаргамел создаёт Хакуса и Векси, как две капли воды похожую на смурфиков злобную парочку, надеясь всё-таки обрести магическую силу. Когда он узнаёт, что лишь настоящий смурф может дать ему то, что он хочет, и лишь Смурфетта способна превратить Хакуса и Векси в настоящих смурфов, Гаргамел похищает Смурфетту и берёт её с собой в Париж, планируя сделать её своей прислужницей. Но смурфики — Папа, Растяпа, Смельчак, Ворчун, Красавчик, Благоразумник — и их друзья из Нью-Йорка этого так не оставят. Тем более что к ним присоединился новорождённый Голубчик.- -Качество: DVDRip
Формат: AVI
Видео кодек: XviD
Аудио кодек: AC3
Видео: XviD, 2020 Кбит/с, 720x384
Аудио: Русский, английский: AC3, 6 ch, 448 Кбит/с-

Media info

F:\Smurfiki.2013.D.DVDRip.2100MB.avi
General
Complete name : F:\Smurfiki.2013.D.DVDRip.2100MB.avi
Format : AVI
Format/Info : Audio Video Interleave
File size : 2.06 GiB
Duration : 1h 40mn
Overall bit rate : 2 932 Kbps
Movie name : Smurfiki.2013.D.DVDRip.2100MB.INTERCINEMA
Director : INTERCINEMA
Genre : Fantasy/Comedy/Family
Writing application : VirtualDubMod 1.5.10.2 (build 2540/release)
Original source form/Name : Movie
Copyright : http://intercinema.net/
Video #0
ID : 0
Format : MPEG-4 Visual
Format profile : Advanced [email protected]
Format settings, BVOP : 1
Format settings, QPel : No
Format settings, GMC : No warppoints
Format settings, Matrix : Default (MPEG)
Codec ID : XVID
Codec ID/Hint : XviD
Duration : 1h 40mn
Bit rate : 1 909 Kbps
Width : 720 pixels
Height : 384 pixels
Display aspect ratio : 1.85:1
Frame rate : 25.000 fps
Color space : YUV
Chroma subsampling : 4:2:0
Bit depth : 8 bits
Scan type : Progressive
Compression mode : Lossy
Bits/(Pixel*Frame) : 0.276
Stream size : 1.34 GiB (65%)
Writing library : XviD 73
Audio #1
ID : 1
Format : AC-3
Format/Info : Audio Coding 3
Mode extension : CM (complete main)
Format settings, Endianness : Big
Codec ID : 2000
Duration : 1h 40mn
Bit rate mode : Constant
Bit rate : 448 Kbps
Channel(s) : 6 channels
Channel positions : Front: L C R, Side: L R, LFE
Sampling rate : 48.0 KHz
Bit depth : 16 bits
Compression mode : Lossy
Stream size : 322 MiB (15%)
Alignment : Split accross interleaves
Audio #2
ID : 2
Format : AC-3
Format/Info : Audio Coding 3
Mode extension : CM (complete main)
Format settings, Endianness : Big
Codec ID : 2000
Duration : 1h 40mn
Bit rate mode : Constant
Bit rate : 448 Kbps
Channel(s) : 6 channels
Channel positions : Front: L C R, Side: L R, LFE
Sampling rate : 48.0 KHz
Bit depth : 16 bits
Compression mode : Lossy
Stream size : 322 MiB (15%)
Alignment : Split accross interleaves

Скриншоты



Последний раз редактировалось: Suxrob89 (2013-11-09 08:06), всего редактировалось 2 раз(а)

Создавать темы 04-Авг-2013 08:10

[Профиль]  [ЛС] 

XaHTep

Стаж: 4 года 8 месяцев

Сообщений: 210

Симпатии: 6

Кэти Перри в Ролях забыли написать!

Создавать темы 05-Авг-2013 23:33

[Профиль]  [ЛС] 

Топик был перенесен из форума CamRip\Telesync\SATRip\TVRip в форум Мультфильмы

Suxrob89

Создавать темы 06-Окт-2013 01:20

 

Suxrob89 ®

Стаж: 7 лет 1 месяц

Сообщений: 933

Симпатии: 564

Торрент обновлён !!!

Создавать темы 06-Окт-2013 01:21

[Профиль]  [ЛС] 

muzaffar1980

Стаж: 3 года 11 месяцев

Сообщений: 1

дайте скорост 0% :bb: ca

Создавать темы 09-Окт-2013 23:44

[Профиль]  [ЛС] 

xxx

Стаж: 7 лет 2 месяца

Сообщений: 9

Симпатии: 1

Dayte skorost pojaluysta

Создавать темы 17-Окт-2013 21:58

[Профиль]  [ЛС] 

master-tx

Стаж: 6 лет 8 месяцев

Сообщений: 13

мвмывмвымвмы

Создавать темы 27-Окт-2013 10:55

[Профиль]  [ЛС] 

master-tx

Стаж: 6 лет 8 месяцев

Сообщений: 13

нет качество

Создавать темы 27-Окт-2013 10:55

[Профиль]  [ЛС] 

master-tx

Стаж: 6 лет 8 месяцев

Сообщений: 13

экранка

Создавать темы 27-Окт-2013 10:55

[Профиль]  [ЛС] 

master-tx

Стаж: 6 лет 8 месяцев

Сообщений: 13

можете побыстрее сделать качественый

Создавать темы 27-Окт-2013 10:58

[Профиль]  [ЛС] 

петр60

Стаж: 5 лет 9 месяцев

Сообщений: 151

Симпатии: 9

скорость 1 kb/s ничего дней через 12 скачаю tc tu md

Создавать темы 17-Фев-2014 23:02

[Профиль]  [ЛС] 

sxxxl1988

Стаж: 1 год 7 месяцев

Сообщений: 19

дайте скорост 0% :bb: ca

Создавать темы 08-Авг-2017 13:24

[Профиль]  [ЛС] 
Показать сообщения:    
Ответить на тему

Текущее время: 21-Сен 15:28

Часовой пояс: UTC + 5



Вы не можете начинать темы
Вы не можете отвечать на сообщения
Вы не можете редактировать свои сообщения
Вы не можете удалять свои сообщения
Вы не можете голосовать в опросах
Вы не можете прикреплять файлы к сообщениям
Вы не можете скачивать файлы