Halo 4: Идущий к рассвету / Halo 4: Forward Unto Dawn (2012) BDRip-AVC от Youtracker | P | лицензия

Ответить на тему
 

Suxrob89 ®

Стаж: 7 лет 3 месяца

Сообщений: 933

Симпатии: 564

-Halo 4: Идущий к рассвету / Halo 4: Forward Unto Dawn-«The story of Halo begins at dawn.» -Страна: США
Студия: 343 Industries, Laskey Productions
Жанр: фантастика, боевик, триллер
Год выпуска: 2012
Мировая премьера: 21 ноября 2012
Дата выхода DVD: 25 июля 2013, «CP Дистрибуция»
Дата выхода Blu-Ray: 1 августа 2013, «CP Дистрибуция»
Продолжительность: 01:28:00
Перевод: Профессиональный (многоголосый закадровый) [Лицензия]
Оригинальная аудиодорожка: нет
Субтитры: русский, английский-Режиссер: Стюарт Хендлер / Stewart Hendler-В ролях: Анна Попплуэлл, Том Грин, Эниша Брюстер, Айелет Зурер, Масам Холден, Майк Допуд, Айэйн Белчер, Осрик Чау, Катерина Кателиева, Дэниэл Кадмор...-Описание: Эта история возвращает игроков к началу войны между людьми и Ковенантами и подводит к событиям, происходящим в игре Halo 4. В стенах военной академии Космического Командования Объединённых Наций (UNSC) группу курсантов знатного происхождения готовят стать следующим поколением солдат в надвигающейся войне между UNCS и повстанцами на колониальных планетах. Один из кадетов, Томас Ласки, ведет внутреннюю борьбу, преодолевая сомнения по поводу войны и опасения не оправдать высоких ожиданий командования. К тому моменту, как Ласки смирился со своей ролью будущего командира, ужасающее войско альянса Ковенант вторгается на планету и переворачивает привычный мир героя с ног на голову. Вдохновлённый подвигами Мастера Чифа, Ласки должен на собственном опыте узнать, что значит быть героем.- -Исходник: BDRemux 1080p + DVD5 R5
Качество: BDRip-AVC
Формат: MKV
Видео: 1024x424 (2.40:1), 23.976 fps, H264 ~ 1831 kbps avg, 0.162 bit/pixel
Аудио: 48 kHz, АС3 6 ch, 448 kbps, русский
Формат субтитров: SoftSub (srt)
Дополнительно: Фильм разбит на главы, как на оригинальном Blu-ray диске.
Предупреждение: В начале фильма (4 минуты) отсутствует перевод, поскольку на DVD5 R5 начала фильма, представленного в этом рипе - нет, нет также русских субтитров на этот промежуток времени.-

MediaInfo

Общее
Полное имя : Halo.4.Idushii.k.rassvetu.2012.P.BDRip-AVC.mkv
Формат : Matroska
Версия формата : Version 4 / Version 2
Размер файла : 1,46 Гбайт
Продолжительность : 1 ч. 35 м.
Общий поток : 2181 Кбит/сек
Дата кодирования : UTC 2013-07-25 09:11:43
Программа кодирования : mkvmerge v6.1.0 ('Old Devil') built on Mar 2 2013 14:32:37
Библиотека кодирования : libebml v1.3.0 + libmatroska v1.4.0
Видео
Идентификатор : 1
Формат : AVC
Формат/Информация : Advanced Video Codec
Профиль формата : [email protected]
Параметр CABAC формата : Да
Параметр ReFrames формата : 11 кадров
Идентификатор кодека : V_MPEG4/ISO/AVC
Продолжительность : 1 ч. 35 м.
Битрейт : 1690 Кбит/сек
Номинальный битрейт : 1831 Кбит/сек
Ширина : 1024 пикселя
Высота : 424 пикселя
Соотношение сторон : 2,40:1
Режим частоты кадров : Постоянный
Частота кадров : 23,976 кадра/сек
Цветовое пространство : YUV
Субдискретизация насыщенности : 4:2:0
Битовая глубина : 8 бит
Тип развёртки : Прогрессивная
Бит/(Пиксели*Кадры) : 0.162
Размер потока : 1,13 Гбайт (77%)
Библиотека кодирования : x264 core 130 r2273 b3065e6
Настройки программы : cabac=1 / ref=11 / deblock=1:-2:-1 / analyse=0x3:0x113 / me=umh / subme=9 / psy=1 / psy_rd=1.00:0.10 / mixed_ref=1 / me_range=32 / chroma_me=1 / trellis=2 / 8x8dct=1 / cqm=0 / deadzone=21,11 / fast_pskip=1 / chroma_qp_offset=-3 / threads=9 / lookahead_threads=2 / sliced_threads=0 / nr=0 / decimate=1 / interlaced=0 / bluray_compat=0 / constrained_intra=0 / bframes=10 / b_pyramid=2 / b_adapt=2 / b_bias=0 / direct=3 / weightb=1 / open_gop=0 / weightp=2 / keyint=240 / keyint_min=23 / scenecut=40 / intra_refresh=0 / rc_lookahead=80 / rc=2pass / mbtree=1 / bitrate=1831 / ratetol=1.0 / qcomp=0.60 / qpmin=0 / qpmax=69 / qpstep=4 / cplxblur=20.0 / qblur=0.5 / ip_ratio=1.40 / aq=2:0.90
Язык : English
Default : Да
Forced : Нет
Аудио
Идентификатор : 2
Формат : AC-3
Формат/Информация : Audio Coding 3
Расширение режима : CM (complete main)
Параметр Endianness формата : Big
Идентификатор кодека : A_AC3
Продолжительность : 1 ч. 35 м.
Вид битрейта : Постоянный
Битрейт : 448 Кбит/сек
Каналы : 6 каналов
Расположение каналов : Front: L C R, Side: L R, LFE
Частота : 48,0 КГц
Битовая глубина : 16 бит
Метод сжатия : С потерями
Размер потока : 306 Мбайт (21%)
Заголовок : MVO
Язык : Russian
Default : Да
Forced : Нет
Текст #1
Идентификатор : 3
Формат : UTF-8
Идентификатор кодека : S_TEXT/UTF8
Идентификатор кодека/Информация : UTF-8 Plain Text
Язык : Russian
Default : Нет
Forced : Нет
Текст #2
Идентификатор : 4
Формат : UTF-8
Идентификатор кодека : S_TEXT/UTF8
Идентификатор кодека/Информация : UTF-8 Plain Text
Язык : English
Default : Нет
Forced : Нет
Меню
00:00:00.000 : en:00:00:00.000
00:04:14.546 : en:00:04:14.546
00:07:44.464 : en:00:07:44.464
00:08:31.928 : en:00:08:31.928
00:12:39.968 : en:00:12:39.968
00:16:24.692 : en:00:16:24.692
00:20:13.212 : en:00:20:13.212
00:25:52.968 : en:00:25:52.968
00:28:22.200 : en:00:28:22.200
00:31:57.207 : en:00:31:57.207
00:36:17.842 : en:00:36:17.842
00:40:53.868 : en:00:40:53.868
00:44:32.461 : en:00:44:32.461
00:46:29.495 : en:00:46:29.495
00:49:45.441 : en:00:49:45.441
00:53:58.402 : en:00:53:58.402
00:57:03.086 : en:00:57:03.086
01:03:23.133 : en:01:03:23.133
01:08:56.257 : en:01:08:56.257
01:12:07.156 : en:01:12:07.156
01:18:15.357 : en:01:18:15.357
01:24:02.079 : en:01:24:02.079

Скриншоты фильма



Создавать темы 04-Авг-2013 09:02

[Профиль]  [ЛС] 

ЛехаМикроКачок

Стаж: 5 лет 5 месяцев

Сообщений: 30

Симпатии: 1

ребят если не сложно залейте и игру очень хочется поиграть ее

Создавать темы 04-Авг-2013 10:16

[Профиль]  [ЛС] 

baburmahmudov36

Стаж: 5 лет 6 месяцев

Сообщений: 141

Симпатии: 4

ребят если не сложно залейте и игру очень хочется поиграть ее
он на бокс только

Создавать темы 05-Авг-2013 03:23

[Профиль]  [ЛС] 

VaspendrO

Стаж: 5 лет 6 месяцев

Сообщений: 12

ребят помогите срокостью))

Создавать темы 09-Янв-2014 08:09

[Профиль]  [ЛС] 

Ibrohim92

Стаж: 6 лет 9 месяцев

Сообщений: 6

)))

Создавать темы 17-Мар-2014 23:10

[Профиль]  [ЛС] 

Ibrohim92

Стаж: 6 лет 9 месяцев

Сообщений: 6

спосибо бро

Создавать темы 17-Мар-2014 23:12

[Профиль]  [ЛС] 
Показать сообщения:    
Ответить на тему

Текущее время: 24-Ноя 12:44

Часовой пояс: UTC + 5



Вы не можете начинать темы
Вы не можете отвечать на сообщения
Вы не можете редактировать свои сообщения
Вы не можете удалять свои сообщения
Вы не можете голосовать в опросах
Вы не можете прикреплять файлы к сообщениям
Вы не можете скачивать файлы