Экзамен для двоих / Admission (Пол Вайц / Paul Weitz) [2013, США, драма, мелодрама, комедия, HDRip][лицензия]

Ответить на тему
 

Suxrob89 ®

Стаж: 7 лет

Сообщений: 933

Симпатии: 564

Экзамен для двоих / Admission- Страна: США
Жанр: драма, мелодрама, комедия
Год выпуска: 2013
Продолжительность: 01:47:07-Перевод: Профессиональный (дублированный) [лицензия]-Режиссер: Пол Вайц / Paul Weitz
В ролях: Тина Фей, Пол Радд, Майкл Шин, Уоллес Шоун, Лили Томлин, Энн Харада, Бен Левин, Дэн Леви, Мэгги Кинэн-Болджер, Глория Рубен-Описание: Полли Нельсон работает в приемной комиссии престижного университета, она — вершитель судеб многих подростков. Но как устроить собственную судьбу? Появление идеального мужчины вовсе не обещает мир и покой, наоборот, приносит в её жизнь множество дурацких ситуаций и не всегда приятных сюрпризов. А тут ещё объявляется сын, которого Полли считала потерянным, и он, увы, далеко не отличник. Что спасать в первую очередь, карьеру или личную жизнь?- -Качество видео: HDRip
Формат видео: AVI
Видео кодек: XviD
Аудио кодек: AC3
Видео: 1838 kb/s, 720x304,25.000fps
Аудио: Russian/English: AC3, 448 kb/s (6 ch),48.0khz-

MediaInfo

Format : AVI
Format/Info : Audio Video Interleave
File size : 2.06 GiB
Duration : 1h 47mn
Overall bit rate : 2 748 Kbps
Writing application : VirtualDubMod 1.5.10.2 (build 2540/release)
Writing library : VirtualDubMod build 2540/release
Video #0
ID : 0
Format : MPEG-4 Visual
Format profile : Advanced [email protected]
Format settings, BVOP : 2
Format settings, QPel : No
Format settings, GMC : No warppoints
Format settings, Matrix : Default (MPEG)
Codec ID : XVID
Codec ID/Hint : XviD
Duration : 1h 47mn
Bit rate : 1 838 Kbps
Width : 720 pixels
Height : 304 pixels
Display aspect ratio : 2.35:1
Frame rate : 23.976 fps
Color space : YUV
Chroma subsampling : 4:2:0
Bit depth : 8 bits
Scan type : Progressive
Compression mode : Lossy
Bits/(Pixel*Frame) : 0.350
Stream size : 1.38 GiB (67%)
Writing library : XviD 1.2.1 (UTC 2008-12-04)
Audio #1
ID : 1
Format : AC-3
Format/Info : Audio Coding 3
Mode extension : CM (complete main)
Format settings, Endianness : Big
Codec ID : 2000
Duration : 1h 47mn
Bit rate mode : Constant
Bit rate : 448 Kbps
Channel(s) : 6 channels
Channel positions : Front: L C R, Side: L R, LFE
Sampling rate : 48.0 KHz
Bit depth : 16 bits
Compression mode : Lossy
Stream size : 343 MiB (16%)
Alignment : Split accross interleaves
Interleave, duration : 42 ms (1.00 video frame)
Interleave, preload duration : 500 ms
Audio #2
ID : 2
Format : AC-3
Format/Info : Audio Coding 3
Mode extension : CM (complete main)
Format settings, Endianness : Big
Codec ID : 2000
Duration : 1h 47mn
Bit rate mode : Constant
Bit rate : 448 Kbps
Channel(s) : 6 channels
Channel positions : Front: L C R, Side: L R, LFE
Sampling rate : 48.0 KHz
Bit depth : 16 bits
Compression mode : Lossy
Stream size : 343 MiB (16%)
Alignment : Split accross interleaves
Interleave, duration : 42 ms (1.00 video frame)
Interleave, preload duration : 500 ms

Скриншоты

Создавать темы 04-Авг-2013 22:19

[Профиль]  [ЛС] 

KoPoJIb

Стаж: 4 года 10 месяцев

Сообщений: 85

Симпатии: 4

Как фильм ?

Создавать темы 04-Авг-2013 23:12

[Профиль]  [ЛС] 

ISMA-EN

Стаж: 5 лет 6 месяцев

Сообщений: 1

фильм супер смотрите все+++

Создавать темы 07-Авг-2013 16:03

[Профиль]  [ЛС] 
Показать сообщения:    
Ответить на тему

Текущее время: 21-Авг 22:42

Часовой пояс: UTC + 5



Вы не можете начинать темы
Вы не можете отвечать на сообщения
Вы не можете редактировать свои сообщения
Вы не можете удалять свои сообщения
Вы не можете голосовать в опросах
Вы не можете прикреплять файлы к сообщениям
Вы не можете скачивать файлы