Таймлесс. Рубиновая книга / Rubinrot (Феликс Фуксштайнер) [2013 г., фантастика, фэнтези, приключения, BDRip 720p] | Лицензия

Ответить на тему
 

CoolDX ®

Стаж: 6 лет 11 месяцев

Сообщений: 196

Симпатии: 59

Таймлесс. Рубиновая книга / Rubinrot
«Любовь будет вечной, если ты - повелитель времени»
- Год выпуска: 2013
Страна: Германия
Студия: Geißendörfer Film- und Fernsehproduktion (GFF), Lieblingsfilm, mem-film, Tele-München (TMG)
Жанр: фантастика, фэнтези, приключения
Продолжительность: 02:01:11
Озвучивание: Дублированное [Лицензия]
Режиссер: Феликс Фуксштайнер
В ролях: Мария Эрих, Яннис Нивёнер, Вероника Феррес, Уве Коккиш, Катарина Тальбах, Готфрид Йон, Герлинде Локкер, Рюдигер Фоглер, Флориан Бартоломай, Дженнифер Лотси, Йозефине Пройсс, Лаура Берлин, Сибилле Каноника, Юстина дель Корте, Костя Улльман, Петер Симонишек, Аксель Мильберг, Анна Бётчер, Софи де ла Торре, Левин Хеннинг, Маурицио Магно, Кьяра Шорас, Йоханнес Зильбершнайдер
Роли дублировали: Наталья Терешкова, Сергей Смирнов, Елена Харитонова, Михаил Бескаравайный, Ирина Гришина, Петр Тобилевич, Ольга Кузнецова, Владимир Герасимов, Михаил Тихонов, Дарья Фролова, Татьяна Весёлкина, Нина Тобилевич, Ольга Шорохова, Даниил Щебланов, Лиза Мартиросова, Валерий Сторожик, Рудольф Панков, Ольга Сирина, Сергей Чихачев
Описание: Живущая в Лондоне шестнадцатилетняя Гвендолин Шеферд случайно узнает, что обладает уникальным геном путешественника во времени, который унаследовала от прапрабабушки. Теперь девушка может ежедневно переноситься в прошлое, и с каждым днем загадок становится все больше. Что такое «Тайна Двенадцати»? Кто охотится на путешественников во времени в прошлом? И почему все вокруг думают, что она обладает какой-то «магией ворона»?
IMDB рейтинг: 5.8/10 (881 голос)
Кинопоиск рейтинг: 6.199 (6303 голосов)
Формат: MKV
Качество: BDRip 720p
Видео: 1280x536 (2.40:1), 24.000 fps, H264 ~ 4714 kbps avg, 0.286 bit/pixel
Аудио: 48 kHz, AC3 Dolby Digital, 3/2 (L,C,R,l,r) + LFE ch, ~448.00 kbps avg
Субтитры: SoftSub (srt)-Релиз подготовлен при поддержке проекта CoolDX-

MediaInfo

General
Unique ID : 242933186370176446373763413350977179586 (0xB6C33AD4EE6562FC9907630D213D0FC2)
Complete name : Rubinrot.2013.D.BDRip.720p.CoolDX.mkv
Format : Matroska
File size : 4.37 GiB
Duration : 2h 1mn
Overall bit rate : 5 160 Kbps
Movie name : Rubinrot (2013) | Release from CoolDX
Encoded date : UTC 2013-07-19 11:16:29
Writing application : mkvmerge v6.3.0 ('You can't stop me!') built on Jun 28 2013 20:09:41
Writing library : libebml v1.3.0 + libmatroska v1.4.0
Video
ID : 1
Format : AVC
Format/Info : Advanced Video Codec
Format profile : [email protected]
Format settings, CABAC : Yes
Format settings, ReFrames : 8 frames
Codec ID : V_MPEG4/ISO/AVC
Duration : 2h 1mn
Bit rate : 4 714 Kbps
Width : 1 280 pixels
Height : 536 pixels
Display aspect ratio : 2.35:1
Frame rate : 24.000 fps
Color space : YUV
Chroma subsampling : 4:2:0
Bit depth : 8 bits
Scan type : Progressive
Bits/(Pixel*Frame) : 0.286
Stream size : 3.90 GiB (89%)
Title : Release from CoolDX
Writing library : x264 core 130 r2273 b3065e6
Encoding settings : cabac=1 / ref=8 / deblock=1:-3:-3 / analyse=0x3:0x113 / me=umh / subme=10 / psy=1 / psy_rd=1.05:0.10 / mixed_ref=1 / me_range=32 / chroma_me=1 / trellis=2 / 8x8dct=1 / cqm=0 / deadzone=21,11 / fast_pskip=0 / chroma_qp_offset=-3 / threads=9 / lookahead_threads=1 / sliced_threads=0 / nr=0 / decimate=1 / interlaced=0 / bluray_compat=0 / constrained_intra=0 / bframes=6 / b_pyramid=2 / b_adapt=2 / b_bias=0 / direct=3 / weightb=1 / open_gop=0 / weightp=2 / keyint=250 / keyint_min=25 / scenecut=40 / intra_refresh=0 / rc_lookahead=40 / rc=2pass / mbtree=1 / bitrate=4714 / ratetol=1.0 / qcomp=0.60 / qpmin=10 / qpmax=51 / qpstep=4 / cplxblur=20.0 / qblur=0.5 / vbv_maxrate=50000 / vbv_bufsize=50000 / nal_hrd=none / ip_ratio=1.40 / aq=1:0.80
Language : German
Audio
ID : 2
Format : AC-3
Format/Info : Audio Coding 3
Mode extension : CM (complete main)
Codec ID : A_AC3
Duration : 2h 1mn
Bit rate mode : Constant
Bit rate : 448 Kbps
Channel(s) : 6 channels
Channel positions : Front: L C R, Side: L R, LFE
Sampling rate : 48.0 KHz
Bit depth : 16 bits
Compression mode : Lossy
Stream size : 388 MiB (9%)
Title : AC3 5.1 @ 448 kbps RUS
Language : Russian
Text
ID : 3
Format : UTF-8
Codec ID : S_TEXT/UTF8
Codec ID/Info : UTF-8 Plain Text
Language : Russian
Menu
00:00:00.000 : en:00:00:00.000
00:10:19.041 : en:00:10:19.041
00:21:18.500 : en:00:21:18.500
00:29:59.958 : en:00:29:59.958
00:41:16.041 : en:00:41:16.041
00:50:28.416 : en:00:50:28.416
01:01:38.291 : en:01:01:38.291
01:11:21.083 : en:01:11:21.083
01:21:45.958 : en:01:21:45.958
01:30:01.125 : en:01:30:01.125
01:40:53.541 : en:01:40:53.541
01:50:11.291 : en:01:50:11.291

Скриншоты






-SD Релиз-

Создавать темы 05-Авг-2013 12:57

[Профиль]  [ЛС] 

tevich

Стаж: 5 лет 11 месяцев

Сообщений: 203

Симпатии: 1

Гарри Поттер - дойч эдишен?

Создавать темы 05-Авг-2013 15:52

[Профиль]  [ЛС] 

CoolDX ®

Стаж: 6 лет 11 месяцев

Сообщений: 196

Симпатии: 59

Гарри Поттер - дойч эдишен?
совсем другая история и мораль..

Создавать темы 05-Авг-2013 15:55

[Профиль]  [ЛС] 

tevich

Стаж: 5 лет 11 месяцев

Сообщений: 203

Симпатии: 1

Sonatrek, Спасибо! Будем посмотреть.

Создавать темы 05-Авг-2013 16:41

[Профиль]  [ЛС] 
Показать сообщения:    
Ответить на тему

Текущее время: 18-Дек 04:36

Часовой пояс: UTC + 5



Вы не можете начинать темы
Вы не можете отвечать на сообщения
Вы не можете редактировать свои сообщения
Вы не можете удалять свои сообщения
Вы не можете голосовать в опросах
Вы не можете прикреплять файлы к сообщениям
Вы не можете скачивать файлы