Формула 1. Сезон 1995 г. Гонки (17 этапов из 17) ["RTL5", "BBC", "Eurosport", "РТР"] VHSRip

Ответить на тему
 

M.J. ®

Стаж: 4 года 3 месяца

Сообщений: 25

Симпатии: 8

Формула 1. Сезон 1995 г. Гонки- Год выпуска: 1995
Вид спорта: Формула 1
Участники: Пилоты королевских гонок
Комментарий: Профессиональный, русский
Качество: VHSRip
Видео & Аудио: под спойлером к каждому этапу-

Этап 1. Гран При Бразилии, Интерлагос (26.03.1995 г., "BBC", "РТР")

-Продолжительность: 01:58:22-Канал: BBC, РТР-Качество: VHSRip
Формат: Matroska
Видео кодек: Advanced Video Codec
Аудио кодек: Advanced Audio Codec
Видео: AVC, [email protected], 720x576 pixels, 25.000 fps
Аудио: AAC, 2 channels, Front: L R, 48.0 KHz-

Media Info


General
Unique ID : 180087781382278123566195826716663022856 (0x877BA523D8F48D1C82BFA6DCD0330508)
Format : Matroska
Format version : Version 4 / Version 2
File size : 1.70 GiB
Duration : 1h 58mn
Overall bit rate : 2 054 Kbps
Movie name : 1995 24° Grande Premio do Brasil round 1 ru
Encoded date : UTC 2013-05-06 11:45:20
Writing application : mkvmerge v6.2.0 ('Promised Land') built on Apr 28 2013 12:22:01
Writing library : libebml v1.3.0 + libmatroska v1.4.0
Video
ID : 1
Format : AVC
Format/Info : Advanced Video Codec
Format profile : [email protected]
Format settings, CABAC : Yes
Format settings, ReFrames : 3 frames
Codec ID : V_MPEG4/ISO/AVC
Duration : 1h 58mn
Width : 720 pixels
Height : 576 pixels
Display aspect ratio : 5:4
Original display aspect ratio : 4:3
Frame rate mode : Constant
Frame rate : 25.000 fps
Standard : PAL
Color space : YUV
Chroma subsampling : 4:2:0
Bit depth : 8 bits
Scan type : Progressive
Language : English
Default : Yes
Forced : No
Audio
ID : 2
Format : AAC
Format/Info : Advanced Audio Codec
Format profile : LC
Codec ID : A_AAC
Duration : 1h 58mn
Channel(s) : 2 channels
Channel positions : Front: L R
Sampling rate : 48.0 KHz
Compression mode : Lossy
Delay relative to video : 16ms
Language : Russian
Default : Yes
Forced : No
-

Скриншоты






-

Этап 2. Гран При Аргентины, Буэнос-Айрес (09.04.1995 г., "Eurosport", "RTL5", "BBC", "PTP")

-Продолжительность: 02:11:44-Канал: Eurosport, RTL5, BBC, PTP-Качество: VHSRip
Формат: Matroska
Видео кодек: Advanced Video Codec
Аудио кодек: Audio Coding 3
Видео: AVC, [email protected], 3425 Kbps, 720x576 pixels, 50.000 fps, Bits/(Pixel*Frame): 0.165
Аудио: AC-3, 256 Kbps, 2 channels, Front: L R, 48.0 KHz-

Media Info


General
Unique ID : 244833817518078222714365562963129127075 (0xB831472EA80C2464A4030B40AA01D0A3)
Format : Matroska
Format version : Version 4 / Version 2
File size : 3.46 GiB
Duration : 2h 11mn
Overall bit rate : 3 756 Kbps
Movie name : 1995 Gran Premio de Argentina round 2 ru
Encoded date : UTC 2013-02-25 06:39:58
Writing application : mkvmerge v6.0.0 ('Coming Up For Air') built on Jan 20 2013 09:52:00
Writing library : libebml v1.3.0 + libmatroska v1.4.0
Video
ID : 1
Format : AVC
Format/Info : Advanced Video Codec
Format profile : [email protected]
Format settings, CABAC : Yes
Format settings, ReFrames : 5 frames
Codec ID : V_MPEG4/ISO/AVC
Duration : 2h 11mn
Bit rate : 3 425 Kbps
Width : 720 pixels
Height : 576 pixels
Display aspect ratio : 4:3
Frame rate mode : Constant
Frame rate : 50.000 fps
Standard : PAL
Color space : YUV
Chroma subsampling : 4:2:0
Bit depth : 8 bits
Scan type : Progressive
Bits/(Pixel*Frame) : 0.165
Stream size : 3.15 GiB (91%)
Title : Video from RTL5
Default : Yes
Forced : No
Audio
ID : 2
Format : AC-3
Format/Info : Audio Coding 3
Mode extension : CM (complete main)
Format settings, Endianness : Big
Codec ID : A_AC3
Duration : 2h 11mn
Bit rate mode : Constant
Bit rate : 256 Kbps
Channel(s) : 2 channels
Channel positions : Front: L R
Sampling rate : 48.0 KHz
Bit depth : 16 bits
Compression mode : Lossy
Delay relative to video : 16ms
Stream size : 241 MiB (7%)
Language : Russian
Default : Yes
Forced : No
-

Скриншоты





-

Этап 3. Гран-При Сан-Марино, Имола (30.04.1995 г., "BBC", "PTP")

-Продолжительность: 02:04:56-Канал: BBC, PTP-Качество: VHSRip
Формат: Matroska
Видео кодек: Advanced Video Codec
Аудио кодек: Advanced Audio Codec
Видео: AVC, [email protected], 1936 Kbps, 720x576 pixels, 25.000 fps, Bits/(Pixel*Frame): 0.187
Аудио: AAC, 2 channels, Front: L R, 48.0 KHz-

Media Info


General
Unique ID : 176728071352642304075112921105101444799 (0x84F496A585F9D7E1A17989D47F8356BF)
Format : Matroska
Format version : Version 4 / Version 2
File size : 1.79 GiB
Duration : 2h 4mn
Overall bit rate : 2 052 Kbps
Movie name : 1995 15o Gran Premio di San Marino round 3 ru
Encoded date : UTC 2013-02-21 12:05:55
Writing application : mkvmerge v6.0.0 ('Coming Up For Air') built on Jan 20 2013 09:52:00
Writing library : libebml v1.3.0 + libmatroska v1.4.0
Video
ID : 1
Format : AVC
Format/Info : Advanced Video Codec
Format profile : [email protected]
Format settings, CABAC : Yes
Format settings, ReFrames : 3 frames
Codec ID : V_MPEG4/ISO/AVC
Duration : 2h 4mn
Nominal bit rate : 1 936 Kbps
Width : 720 pixels
Height : 576 pixels
Display aspect ratio : 5:4
Original display aspect ratio : 4:3
Frame rate mode : Constant
Frame rate : 25.000 fps
Standard : PAL
Color space : YUV
Chroma subsampling : 4:2:0
Bit depth : 8 bits
Scan type : Progressive
Bits/(Pixel*Frame) : 0.187
Writing library : x264 core 129 r2245 bc13772
Encoding settings : cabac=1 / ref=2 / deblock=1:0:0 / analyse=0x3:0x113 / me=hex / subme=7 / psy=0 / mixed_ref=1 / me_range=16 / chroma_me=1 / trellis=1 / 8x8dct=1 / cqm=0 / deadzone=21,11 / fast_pskip=1 / chroma_qp_offset=0 / threads=6 / lookahead_threads=1 / sliced_threads=0 / nr=0 / decimate=1 / interlaced=0 / bluray_compat=0 / constrained_intra=1 / bframes=4 / b_pyramid=1 / b_adapt=1 / b_bias=0 / direct=1 / weightb=1 / open_gop=0 / weightp=2 / keyint=250 / keyint_min=50 / scenecut=40 / intra_refresh=0 / rc_lookahead=40 / rc=2pass / mbtree=1 / bitrate=1936 / ratetol=1.0 / qcomp=0.60 / qpmin=0 / qpmax=69 / qpstep=4 / cplxblur=20.0 / qblur=0.5 / vbv_maxrate=1936 / vbv_bufsize=1500 / nal_hrd=none / ip_ratio=1.40 / aq=1:1.00
Language : English
Default : Yes
Forced : No
Audio
ID : 2
Format : AAC
Format/Info : Advanced Audio Codec
Format profile : LC
Codec ID : A_AAC
Duration : 2h 4mn
Channel(s) : 2 channels
Channel positions : Front: L R
Sampling rate : 48.0 KHz
Compression mode : Lossy
Language : Russian
Default : Yes
Forced : No
-

Скриншоты





-

Этап 4. Гран При Испании, Каталунья-Монмело (14.05.1995 г., "BBC")

-Продолжительность: 01:55:26-Канал: BBC-Качество: VHSRip
Формат: Matroska
Видео кодек: Advanced Video Codec
Аудио кодек: Advanced Audio Codec
Видео: AVC, [email protected], 2106 Kbps, 720x576 pixels, 25.000 fps, Bits/(Pixel*Frame): 0.203
Аудио: AAC, 2 channels, Front: L R, 48.0 KHz-

Media Info


General
Unique ID : 203096213666671138460492759040200800665 (0x98CAE86F5C5D9F85B19293DB17F7F999)
Format : Matroska
Format version : Version 4 / Version 2
File size : 1.79 GiB
Duration : 1h 55mn
Overall bit rate : 2 222 Kbps
Movie name : 1995 39o Gran Premio Marlboro de Espana round 4 ru
Encoded date : UTC 2013-03-01 06:25:16
Writing application : mkvmerge v6.0.0 ('Coming Up For Air') built on Jan 20 2013 09:52:00
Writing library : libebml v1.3.0 + libmatroska v1.4.0
Video
ID : 1
Format : AVC
Format/Info : Advanced Video Codec
Format profile : [email protected]
Format settings, CABAC : Yes
Format settings, ReFrames : 3 frames
Codec ID : V_MPEG4/ISO/AVC
Duration : 1h 55mn
Nominal bit rate : 2 106 Kbps
Width : 720 pixels
Height : 576 pixels
Display aspect ratio : 5:4
Original display aspect ratio : 4:3
Frame rate mode : Constant
Frame rate : 25.000 fps
Standard : PAL
Color space : YUV
Chroma subsampling : 4:2:0
Bit depth : 8 bits
Scan type : Progressive
Bits/(Pixel*Frame) : 0.203
Writing library : x264 core 129 r2245 bc13772
Encoding settings : cabac=1 / ref=2 / deblock=1:0:0 / analyse=0x3:0x113 / me=hex / subme=7 / psy=0 / mixed_ref=1 / me_range=16 / chroma_me=1 / trellis=1 / 8x8dct=1 / cqm=0 / deadzone=21,11 / fast_pskip=1 / chroma_qp_offset=0 / threads=6 / lookahead_threads=1 / sliced_threads=0 / nr=0 / decimate=1 / interlaced=0 / bluray_compat=0 / constrained_intra=1 / bframes=4 / b_pyramid=1 / b_adapt=1 / b_bias=0 / direct=1 / weightb=1 / open_gop=0 / weightp=2 / keyint=250 / keyint_min=50 / scenecut=40 / intra_refresh=0 / rc_lookahead=40 / rc=2pass / mbtree=1 / bitrate=2106 / ratetol=1.0 / qcomp=0.60 / qpmin=0 / qpmax=69 / qpstep=4 / cplxblur=20.0 / qblur=0.5 / vbv_maxrate=2106 / vbv_bufsize=1500 / nal_hrd=none / ip_ratio=1.40 / aq=1:1.00
Language : English
Default : Yes
Forced : No
Audio
ID : 2
Format : AAC
Format/Info : Advanced Audio Codec
Format profile : LC
Codec ID : A_AAC
Duration : 1h 55mn
Channel(s) : 2 channels
Channel positions : Front: L R
Sampling rate : 48.0 KHz
Compression mode : Lossy
Language : Russian
Default : Yes
Forced : No
-

Скриншоты




-

Этап 5. Гран При Монако, Монте-Карло (28.05.1995 г., "BBC")

-Продолжительность: 02:31:42-Канал: BBC-Качество: VHSRip
Формат: Windows Media
Видео кодек: Windows Media Video 9
Аудио кодек: Windows Media Audio
Видео: VC-1, [email protected], 2964 Kbps, 768x576 pixels, 25.000 fps, Bits/(Pixel*Frame): 0.268
Аудио: WMA, 117 Kbps, 2 channels, 48.0 KHz-

Media Info


General
Format : Windows Media
File size : 3.37 GiB
Duration : 2h 31mn
Overall bit rate mode : Variable
Overall bit rate : 3 179 Kbps
Maximum Overall bit rate : 5 332 Kbps
Movie name : F1-1995-05-Monaco-Monte Carlo
Encoded date : UTC 2010-05-12 15:04:34.854
Writing application : 6.0.6002.18005 / Windows Movie Maker
Application : Windows Movie Maker 6.0.6002.18005
Video
ID : 2
Format : VC-1
Format profile : [email protected]
Codec ID : WMV3
Codec ID/Info : Windows Media Video 9
Codec ID/Hint : WMV3
Description of the codec : Windows Media Video 9
Duration : 2h 31mn
Bit rate mode : Variable
Bit rate : 2 964 Kbps
Width : 768 pixels
Height : 576 pixels
Display aspect ratio : 4:3
Frame rate : 25.000 fps
Bit depth : 8 bits
Scan type : Progressive
Compression mode : Lossy
Bits/(Pixel*Frame) : 0.268
Stream size : 3.14 GiB (93%)
Language : English (US)
Audio
ID : 1
Format : WMA
Format version : Version 2
Codec ID : 161
Codec ID/Info : Windows Media Audio
Description of the codec : Windows Media Audio 9.2 - VBR Quality 90, 48 kHz, stereo 1-pass VBR
Duration : 2h 31mn
Bit rate mode : Variable
Bit rate : 117 Kbps
Channel(s) : 2 channels
Sampling rate : 48.0 KHz
Bit depth : 16 bits
Stream size : 127 MiB (4%)
Language : English (US)
-

Скриншоты






-

Этап 6. Гран При Канады, Монреаль (11.06.1995 г., "PTP", "BBC")

-Продолжительность: 02:07:19-Канал: PTP, BBC-Качество: VHSRip
Формат: Matroska
Видео кодек: Advanced Video Codec
Аудио кодек:
Видео: AVC, [email protected], 3471 Kbps, 704x564 pixels, 50.000 fps, Bits/(Pixel*Frame): 0.175
Аудио: AC-3, 256 Kbps, 2 channels, Front: L R, 48.0 KHz-

Media Info


General
Unique ID : 202914986581632615801970126694617672203 (0x98A8013FF6904221862E8CFDCE136A0B)
Format : Matroska
Format version : Version 4 / Version 2
File size : 3.38 GiB
Duration : 2h 7mn
Overall bit rate : 3 803 Kbps
Movie name : 1995 Grand Prix Molson du Canada round 6 ru
Encoded date : UTC 2013-02-24 16:15:27
Writing application : mkvmerge v6.0.0 ('Coming Up For Air') built on Jan 20 2013 09:52:00
Writing library : libebml v1.3.0 + libmatroska v1.4.0
Video
ID : 1
Format : AVC
Format/Info : Advanced Video Codec
Format profile : [email protected]
Format settings, CABAC : Yes
Format settings, ReFrames : 5 frames
Codec ID : V_MPEG4/ISO/AVC
Duration : 2h 7mn
Bit rate : 3 471 Kbps
Width : 704 pixels
Height : 564 pixels
Display aspect ratio : 5:4
Original display aspect ratio : 4:3
Frame rate mode : Constant
Frame rate : 50.000 fps
Color space : YUV
Chroma subsampling : 4:2:0
Bit depth : 8 bits
Scan type : Progressive
Bits/(Pixel*Frame) : 0.175
Stream size : 3.09 GiB (91%)
Language : English
Default : Yes
Forced : No
Audio
ID : 2
Format : AC-3
Format/Info : Audio Coding 3
Mode extension : CM (complete main)
Format settings, Endianness : Big
Codec ID : A_AC3
Duration : 2h 7mn
Bit rate mode : Constant
Bit rate : 256 Kbps
Channel(s) : 2 channels
Channel positions : Front: L R
Sampling rate : 48.0 KHz
Bit depth : 16 bits
Compression mode : Lossy
Delay relative to video : 8ms
Stream size : 233 MiB (7%)
Language : Russian
Default : Yes
Forced : No
-

Скриншоты





-

Этап 7. Гран При Франции, Маньи-Кур (02.07.1995 г., "BBC")

-Продолжительность: 01:57:24-Канал: BBC-Качество: VHSRip
Формат: Matroska
Видео кодек: Advanced Video Codec
Аудио кодек: Audio Coding 3
Видео: AVC, [email protected], 1257 Kbps, 720x576 pixels
Аудио: AC-3, 256 Kbps, 2 channels, Front: L R, 48.0 KHz-

Media Info


General
Unique ID : 224134858870469201691926749329313081879 (0xA89ECDBA8FF11F72897A878E5D15AA17)
Format : Matroska
Format version : Version 4 / Version 2
File size : 1.27 GiB
Duration : 1h 57mn
Overall bit rate : 1 544 Kbps
Movie name : 1995 81e Grand Prix de France round 7 ru
Encoded date : UTC 2013-05-14 09:21:00
Writing application : mkvmerge v6.2.0 ('Promised Land') built on Apr 28 2013 12:22:01
Writing library : libebml v1.3.0 + libmatroska v1.4.0
Video
ID : 1
Format : AVC
Format/Info : Advanced Video Codec
Format profile : [email protected]
Format settings, CABAC : Yes
Format settings, ReFrames : 3 frames
Codec ID : V_MPEG4/ISO/AVC
Bit rate : 1 257 Kbps
Width : 720 pixels
Height : 576 pixels
Display aspect ratio : 5:4
Frame rate mode : Variable
Standard : PAL
Color space : YUV
Chroma subsampling : 4:2:0
Bit depth : 8 bits
Scan type : Progressive
Language : English
Default : Yes
Forced : No
Audio
ID : 2
Format : AC-3
Format/Info : Audio Coding 3
Mode extension : CM (complete main)
Format settings, Endianness : Big
Codec ID : A_AC3
Duration : 1h 57mn
Bit rate mode : Constant
Bit rate : 256 Kbps
Channel(s) : 2 channels
Channel positions : Front: L R
Sampling rate : 48.0 KHz
Bit depth : 16 bits
Compression mode : Lossy
Delay relative to video : 25ms
Stream size : 215 MiB (17%)
Language : Russian
Default : Yes
Forced : No
-

Скриншоты




-

Этап 8. Гран-При Великобритании, Силверстоун (16.07.1995 г., "RTL5", "BBC")

-Продолжительность: 01:52:50-Канал: RTL5, BBC-Качество: VHSRip
Формат: Matroska
Видео кодек: Advanced Video Codec
Аудио кодек: MPEG Audio
Видео: AVC, [email protected], 3420 Kbps, 692x558 pixels, 50.000 fps, Bits/(Pixel*Frame): 0.177
Аудио: MP3, 192 Kbps, 2 channels, 44.1 KHz-

Media Info


General
Unique ID : 206295611768722472735366711005177456845 (0x9B3316F0B01D70A1BE982EBC3FF028CD)
Format : Matroska
Format version : Version 4 / Version 2
File size : 2.90 GiB
Duration : 1h 52mn
Overall bit rate : 3 685 Kbps
Movie name : 1995 British Grand Prix round 8 ru
Encoded date : UTC 2013-02-24 16:23:06
Writing application : mkvmerge v6.0.0 ('Coming Up For Air') built on Jan 20 2013 09:52:00
Writing library : libebml v1.3.0 + libmatroska v1.4.0
Video
ID : 1
Format : AVC
Format/Info : Advanced Video Codec
Format profile : [email protected]
Format settings, CABAC : Yes
Format settings, ReFrames : 5 frames
Codec ID : V_MPEG4/ISO/AVC
Duration : 1h 52mn
Bit rate : 3 420 Kbps
Width : 692 pixels
Height : 558 pixels
Display aspect ratio : 5:4
Original display aspect ratio : 4:3
Frame rate mode : Constant
Frame rate : 50.000 fps
Color space : YUV
Chroma subsampling : 4:2:0
Bit depth : 8 bits
Scan type : Progressive
Bits/(Pixel*Frame) : 0.177
Stream size : 2.70 GiB (93%)
Language : English
Default : Yes
Forced : No
Audio
ID : 2
Format : MPEG Audio
Format version : Version 1
Format profile : Layer 3
Codec ID : A_MPEG/L3
Codec ID/Hint : MP3
Duration : 1h 52mn
Bit rate mode : Constant
Bit rate : 192 Kbps
Channel(s) : 2 channels
Sampling rate : 44.1 KHz
Compression mode : Lossy
Delay relative to video : 22ms
Stream size : 155 MiB (5%)
Language : Russian
Default : Yes
Forced : No
-

Скриншоты







-

Этап 9. Гран-При Германии, Хокенхайм (30.07.1995 г., "BBC")

-Продолжительность: 01:57:12-Канал: BBC-Качество: VHSRip
Формат: Matroska
Видео кодек: Advanced Video Codec
Аудио кодек: Advanced Audio Codec
Видео: AVC, [email protected], 2075 Kbps, 720x576 pixels, 25.000 fps, Bits/(Pixel*Frame): 0.200
Аудио: AAC, 2 channels, Front: L R, 48.0 KHz-

Media Info


General
Unique ID : 194740992482994933234405591020389437376 (0x9281C039D2044E868FEB0955A6EE8FC0)
Format : Matroska
Format version : Version 4 / Version 2
File size : 1.80 GiB
Duration : 1h 57mn
Overall bit rate : 2 194 Kbps
Movie name : 1995 Grosser Mobil 1 Preis von Deutschland round 9 ru
Encoded date : UTC 2013-03-01 06:27:34
Writing application : mkvmerge v6.0.0 ('Coming Up For Air') built on Jan 20 2013 09:52:00
Writing library : libebml v1.3.0 + libmatroska v1.4.0
Video
ID : 1
Format : AVC
Format/Info : Advanced Video Codec
Format profile : [email protected]
Format settings, CABAC : Yes
Format settings, ReFrames : 3 frames
Codec ID : V_MPEG4/ISO/AVC
Duration : 1h 57mn
Nominal bit rate : 2 075 Kbps
Width : 720 pixels
Height : 576 pixels
Display aspect ratio : 5:4
Original display aspect ratio : 4:3
Frame rate mode : Constant
Frame rate : 25.000 fps
Standard : PAL
Color space : YUV
Chroma subsampling : 4:2:0
Bit depth : 8 bits
Scan type : Progressive
Bits/(Pixel*Frame) : 0.200
Writing library : x264 core 129 r2245 bc13772
Encoding settings : cabac=1 / ref=2 / deblock=1:0:0 / analyse=0x3:0x113 / me=hex / subme=7 / psy=0 / mixed_ref=1 / me_range=16 / chroma_me=1 / trellis=1 / 8x8dct=1 / cqm=0 / deadzone=21,11 / fast_pskip=1 / chroma_qp_offset=0 / threads=6 / lookahead_threads=1 / sliced_threads=0 / nr=0 / decimate=1 / interlaced=0 / bluray_compat=0 / constrained_intra=1 / bframes=4 / b_pyramid=1 / b_adapt=1 / b_bias=0 / direct=1 / weightb=1 / open_gop=0 / weightp=2 / keyint=250 / keyint_min=50 / scenecut=40 / intra_refresh=0 / rc_lookahead=40 / rc=2pass / mbtree=1 / bitrate=2075 / ratetol=1.0 / qcomp=0.60 / qpmin=0 / qpmax=69 / qpstep=4 / cplxblur=20.0 / qblur=0.5 / vbv_maxrate=2075 / vbv_bufsize=1500 / nal_hrd=none / ip_ratio=1.40 / aq=1:1.00
Language : English
Default : Yes
Forced : No
Audio
ID : 2
Format : AAC
Format/Info : Advanced Audio Codec
Format profile : LC
Codec ID : A_AAC
Duration : 1h 57mn
Channel(s) : 2 channels
Channel positions : Front: L R
Sampling rate : 48.0 KHz
Compression mode : Lossy
Language : Russian
Default : Yes
Forced : No
-

Скриншоты






-

Этап 10. Гран-При Венгрии, Хунгароринг (13.08.1995 г., "BBC")

-Продолжительность: 02:04:05-Канал: BBC-Качество: VHSRip
Формат: Matroska
Видео кодек: Advanced Video Codec
Аудио кодек: Advanced Audio Codec
Видео: AVC, [email protected], 1951 Kbps, 720x576 pixels, 25.000 fps, Bits/(Pixel*Frame): 0.188
Аудио: AAC, 2 channels, Front: L R, 48.0 KHz-

Media Info


General
Unique ID : 219677732260914732430040817967697043940 (0xA544646BA6E37521A429CB7ADE8121E4)
Complete name : F:\Formula 1 media\1995 full ru\1995 Marlboro Magyar Nagydij round 10 ru.mkv
Format : Matroska
Format version : Version 4 / Version 2
File size : 1.79 GiB
Duration : 2h 4mn
Overall bit rate : 2 070 Kbps
Movie name : 1995 Marlboro Magyar Nagydij round 10 ru
Encoded date : UTC 2013-03-01 06:29:45
Writing application : mkvmerge v6.0.0 ('Coming Up For Air') built on Jan 20 2013 09:52:00
Writing library : libebml v1.3.0 + libmatroska v1.4.0
Video
ID : 1
Format : AVC
Format/Info : Advanced Video Codec
Format profile : [email protected]
Format settings, CABAC : Yes
Format settings, ReFrames : 3 frames
Codec ID : V_MPEG4/ISO/AVC
Duration : 2h 4mn
Nominal bit rate : 1 951 Kbps
Width : 720 pixels
Height : 576 pixels
Display aspect ratio : 5:4
Original display aspect ratio : 4:3
Frame rate mode : Constant
Frame rate : 25.000 fps
Standard : PAL
Color space : YUV
Chroma subsampling : 4:2:0
Bit depth : 8 bits
Scan type : Progressive
Bits/(Pixel*Frame) : 0.188
Writing library : x264 core 129 r2245 bc13772
Encoding settings : cabac=1 / ref=2 / deblock=1:0:0 / analyse=0x3:0x113 / me=hex / subme=7 / psy=0 / mixed_ref=1 / me_range=16 / chroma_me=1 / trellis=1 / 8x8dct=1 / cqm=0 / deadzone=21,11 / fast_pskip=1 / chroma_qp_offset=0 / threads=6 / lookahead_threads=1 / sliced_threads=0 / nr=0 / decimate=1 / interlaced=0 / bluray_compat=0 / constrained_intra=1 / bframes=4 / b_pyramid=1 / b_adapt=1 / b_bias=0 / direct=1 / weightb=1 / open_gop=0 / weightp=2 / keyint=250 / keyint_min=50 / scenecut=40 / intra_refresh=0 / rc_lookahead=40 / rc=2pass / mbtree=1 / bitrate=1951 / ratetol=1.0 / qcomp=0.60 / qpmin=0 / qpmax=69 / qpstep=4 / cplxblur=20.0 / qblur=0.5 / vbv_maxrate=1951 / vbv_bufsize=1500 / nal_hrd=none / ip_ratio=1.40 / aq=1:1.00
Language : English
Default : Yes
Forced : No
Audio
ID : 2
Format : AAC
Format/Info : Advanced Audio Codec
Format profile : LC
Codec ID : A_AAC
Duration : 2h 4mn
Channel(s) : 2 channels
Channel positions : Front: L R
Sampling rate : 48.0 KHz
Compression mode : Lossy
Language : Russian
Default : Yes
Forced : No
-

Скриншоты





-

Этап 11. Гран-При Бельгии, Спа-Франкоршан (27.08.1995 г., "BBC", "Eurosport")

-Продолжительность: 01:54:03-Канал: BBC, Eurosport-Качество: VHSRip
Формат: Matroska
Видео кодек: Advanced Video Codec
Аудио кодек: Advanced Audio Codec
Видео: AVC, [email protected], 2137 Kbps, 720x576 pixels, 25.000 fps, Bits/(Pixel*Frame): 0.206
Аудио: AAC, 2 channels, Front: L R, 48.0 KHz-

Media Info


General
Unique ID : 191478802001741101346884429111624866172 (0x900D79D13E601B1E9CBB4B00D2B2197C)
Format : Matroska
Format version : Version 4 / Version 2
File size : 1.79 GiB
Duration : 1h 54mn
Overall bit rate : 2 252 Kbps
Movie name : 1995 Grand Prix de Belgique round 11 ru
Encoded date : UTC 2013-03-01 06:33:17
Writing application : mkvmerge v6.0.0 ('Coming Up For Air') built on Jan 20 2013 09:52:00
Writing library : libebml v1.3.0 + libmatroska v1.4.0
Video
ID : 1
Format : AVC
Format/Info : Advanced Video Codec
Format profile : [email protected]
Format settings, CABAC : Yes
Format settings, ReFrames : 3 frames
Codec ID : V_MPEG4/ISO/AVC
Duration : 1h 54mn
Nominal bit rate : 2 137 Kbps
Width : 720 pixels
Height : 576 pixels
Display aspect ratio : 5:4
Original display aspect ratio : 4:3
Frame rate mode : Constant
Frame rate : 25.000 fps
Standard : PAL
Color space : YUV
Chroma subsampling : 4:2:0
Bit depth : 8 bits
Scan type : Progressive
Bits/(Pixel*Frame) : 0.206
Writing library : x264 core 129 r2245 bc13772
Encoding settings : cabac=1 / ref=2 / deblock=1:0:0 / analyse=0x3:0x113 / me=hex / subme=7 / psy=0 / mixed_ref=1 / me_range=16 / chroma_me=1 / trellis=1 / 8x8dct=1 / cqm=0 / deadzone=21,11 / fast_pskip=1 / chroma_qp_offset=0 / threads=6 / lookahead_threads=1 / sliced_threads=0 / nr=0 / decimate=1 / interlaced=0 / bluray_compat=0 / constrained_intra=1 / bframes=4 / b_pyramid=1 / b_adapt=1 / b_bias=0 / direct=1 / weightb=1 / open_gop=0 / weightp=2 / keyint=250 / keyint_min=50 / scenecut=40 / intra_refresh=0 / rc_lookahead=40 / rc=2pass / mbtree=1 / bitrate=2137 / ratetol=1.0 / qcomp=0.60 / qpmin=0 / qpmax=69 / qpstep=4 / cplxblur=20.0 / qblur=0.5 / vbv_maxrate=2137 / vbv_bufsize=1500 / nal_hrd=none / ip_ratio=1.40 / aq=1:1.00
Language : English
Default : Yes
Forced : No
Audio
ID : 2
Format : AAC
Format/Info : Advanced Audio Codec
Format profile : LC
Codec ID : A_AAC
Duration : 1h 54mn
Channel(s) : 2 channels
Channel positions : Front: L R
Sampling rate : 48.0 KHz
Compression mode : Lossy
Language : Russian
Default : Yes
Forced : No
-

Скриншоты












-

Этап 12. Гран-При Италии, Монца (10.09.1995 г., "BBC")

-Продолжительность: 02:05:28-Канал: BBC-Качество: VHSRip
Формат: Matroska
Видео кодек: Advanced Video Codec
Аудио кодек: Advanced Audio Codec
Видео: AVC, [email protected], 1928 Kbps, 720x576 pixels, 25.000 fps, Bits/(Pixel*Frame): 0.186
Аудио: AAC, 2 channels, Front: L R, 48.0 KHz-

Media Info


General
Unique ID : 174836218432663826373603176567755069354 (0x83883B189C81CFE2B656F34DADD557AA)
Format : Matroska
Format version : Version 4 / Version 2
File size : 1.79 GiB
Duration : 2h 5mn
Overall bit rate : 2 043 Kbps
Movie name : 1995 Pioneer 66° Gran Premio d'Italia round 12 ru
Encoded date : UTC 2013-03-01 14:22:38
Writing application : mkvmerge v6.0.0 ('Coming Up For Air') built on Jan 20 2013 09:52:00
Writing library : libebml v1.3.0 + libmatroska v1.4.0
Video
ID : 1
Format : AVC
Format/Info : Advanced Video Codec
Format profile : [email protected]
Format settings, CABAC : Yes
Format settings, ReFrames : 3 frames
Codec ID : V_MPEG4/ISO/AVC
Duration : 2h 5mn
Nominal bit rate : 1 928 Kbps
Width : 720 pixels
Height : 576 pixels
Display aspect ratio : 5:4
Original display aspect ratio : 4:3
Frame rate mode : Constant
Frame rate : 25.000 fps
Standard : PAL
Color space : YUV
Chroma subsampling : 4:2:0
Bit depth : 8 bits
Scan type : Progressive
Bits/(Pixel*Frame) : 0.186
Writing library : x264 core 129 r2245 bc13772
Encoding settings : cabac=1 / ref=2 / deblock=1:0:0 / analyse=0x3:0x113 / me=hex / subme=7 / psy=0 / mixed_ref=1 / me_range=16 / chroma_me=1 / trellis=1 / 8x8dct=1 / cqm=0 / deadzone=21,11 / fast_pskip=1 / chroma_qp_offset=0 / threads=6 / lookahead_threads=1 / sliced_threads=0 / nr=0 / decimate=1 / interlaced=0 / bluray_compat=0 / constrained_intra=1 / bframes=4 / b_pyramid=1 / b_adapt=1 / b_bias=0 / direct=1 / weightb=1 / open_gop=0 / weightp=2 / keyint=250 / keyint_min=50 / scenecut=40 / intra_refresh=0 / rc_lookahead=40 / rc=2pass / mbtree=1 / bitrate=1928 / ratetol=1.0 / qcomp=0.60 / qpmin=0 / qpmax=69 / qpstep=4 / cplxblur=20.0 / qblur=0.5 / vbv_maxrate=1928 / vbv_bufsize=1500 / nal_hrd=none / ip_ratio=1.40 / aq=1:1.00
Language : English
Default : Yes
Forced : No
Audio
ID : 2
Format : AAC
Format/Info : Advanced Audio Codec
Format profile : LC
Codec ID : A_AAC
Duration : 2h 5mn
Channel(s) : 2 channels
Channel positions : Front: L R
Sampling rate : 48.0 KHz
Compression mode : Lossy
Language : Russian
Default : Yes
Forced : No
-

Скриншоты








-

Этап 13. Гран-При Португалии, Эшторил (24.09.1995 г., "BBC")

-Продолжительность: 02:20:59-Канал: BBC-Качество: VHSRip
Формат: Windows Media
Видео кодек: Windows Media Video 9
Аудио кодек: Windows Media Audio
Видео: VC-1, [email protected], 2784 Kbps, 768x576 pixels, 25.000 fps, Bits/(Pixel*Frame): 0.252
Аудио: WMA, 108 Kbps, 2 channels, 48.0 KHz-

Media Info


General
Format : Windows Media
File size : 2.84 GiB
Duration : 2h 20mn
Overall bit rate mode : Variable
Overall bit rate : 2 882 Kbps
Maximum Overall bit rate : 4 954 Kbps
Movie name : F1-1995-13-Portugal-Estoril
Encoded date : UTC 2010-05-15 04:33:13.120
Writing application : 6.0.6002.18005 / Windows Movie Maker
Application : Windows Movie Maker 6.0.6002.18005
Video
ID : 2
Format : VC-1
Format profile : [email protected]
Codec ID : WMV3
Codec ID/Info : Windows Media Video 9
Codec ID/Hint : WMV3
Description of the codec : Windows Media Video 9
Duration : 2h 20mn
Bit rate mode : Variable
Bit rate : 2 784 Kbps
Width : 768 pixels
Height : 576 pixels
Display aspect ratio : 4:3
Frame rate : 25.000 fps
Bit depth : 8 bits
Scan type : Progressive
Compression mode : Lossy
Bits/(Pixel*Frame) : 0.252
Stream size : 2.74 GiB (97%)
Language : English (US)
Audio
ID : 1
Format : WMA
Format version : Version 2
Codec ID : 161
Codec ID/Info : Windows Media Audio
Description of the codec : Windows Media Audio 9.2 - VBR Quality 90, 48 kHz, stereo 1-pass VBR
Duration : 2h 20mn
Bit rate mode : Variable
Bit rate : 108 Kbps
Channel(s) : 2 channels
Sampling rate : 48.0 KHz
Bit depth : 16 bits
Stream size : 109 MiB (4%)
Language : English (US)
-

Скриншоты






-

Этап 14. Гран-При Европы, Нюрбургринг (01.10.1995 г., "PTP", "BBC")

-Продолжительность: 02:01:57-Канал: PTP, BBC-Качество: VHSRip
Формат: Matroska
Видео кодек: Advanced Video Codec
Аудио кодек: Advanced Audio Codec
Видео: AVC, [email protected], 1990 Kbps, 720x576 pixels, 25.000 fps, Bits/(Pixel*Frame): 0.192
Аудио: AAC, 2 channels, Front: L R, 48.0 KHz-

Media Info


General
Unique ID : 248053549161581683775182577006736366514 (0xBA9D60355BB5B39CAF6843244048DBB2)
Format : Matroska
Format version : Version 4 / Version 2
File size : 1.79 GiB
Duration : 2h 1mn
Overall bit rate : 2 105 Kbps
Movie name : 1995 European Grand Prix round 14 ru
Encoded date : UTC 2013-03-01 14:24:57
Writing application : mkvmerge v6.0.0 ('Coming Up For Air') built on Jan 20 2013 09:52:00
Writing library : libebml v1.3.0 + libmatroska v1.4.0
Video
ID : 1
Format : AVC
Format/Info : Advanced Video Codec
Format profile : [email protected]
Format settings, CABAC : Yes
Format settings, ReFrames : 3 frames
Format settings, GOP : M=1, N=5
Codec ID : V_MPEG4/ISO/AVC
Duration : 2h 1mn
Nominal bit rate : 1 990 Kbps
Width : 720 pixels
Height : 576 pixels
Display aspect ratio : 5:4
Original display aspect ratio : 4:3
Frame rate mode : Constant
Frame rate : 25.000 fps
Standard : PAL
Color space : YUV
Chroma subsampling : 4:2:0
Bit depth : 8 bits
Scan type : Progressive
Bits/(Pixel*Frame) : 0.192
Writing library : x264 core 129 r2245 bc13772
Encoding settings : cabac=1 / ref=2 / deblock=1:0:0 / analyse=0x3:0x113 / me=hex / subme=7 / psy=0 / mixed_ref=1 / me_range=16 / chroma_me=1 / trellis=1 / 8x8dct=1 / cqm=0 / deadzone=21,11 / fast_pskip=1 / chroma_qp_offset=0 / threads=6 / lookahead_threads=1 / sliced_threads=0 / nr=0 / decimate=1 / interlaced=0 / bluray_compat=0 / constrained_intra=1 / bframes=4 / b_pyramid=1 / b_adapt=1 / b_bias=0 / direct=1 / weightb=1 / open_gop=0 / weightp=2 / keyint=250 / keyint_min=50 / scenecut=40 / intra_refresh=0 / rc_lookahead=40 / rc=2pass / mbtree=1 / bitrate=1990 / ratetol=1.0 / qcomp=0.60 / qpmin=0 / qpmax=69 / qpstep=4 / cplxblur=20.0 / qblur=0.5 / vbv_maxrate=1990 / vbv_bufsize=1500 / nal_hrd=none / ip_ratio=1.40 / aq=1:1.00
Language : English
Default : Yes
Forced : No
Audio
ID : 2
Format : AAC
Format/Info : Advanced Audio Codec
Format profile : LC
Codec ID : A_AAC
Duration : 2h 1mn
Channel(s) : 2 channels
Channel positions : Front: L R
Sampling rate : 48.0 KHz
Compression mode : Lossy
Language : Russian
Default : Yes
Forced : No
-

Скриншоты







-

Этап 15. Гран-При Тихого океана, Аида (22.10.1995 г., "BBC")

-Продолжительность: 02:04:15-Канал: BBC-Качество: VHSRip
Формат: Matroska
Видео кодек: Advanced Video Codec
Аудио кодек: Advanced Audio Codec
Видео: AVC, [email protected], 1951 Kbps, 720x576 pixels, 25.000 fps, Bits/(Pixel*Frame): 0.188
Аудио: AAC, 2 channels, Front: L R, 48.0 KHz-

Media Info


General
Unique ID : 220920921490916880275168307875043551018 (0xA633D261C0DBF604BB9212915B4B272A)
Format : Matroska
Format version : Version 4 / Version 2
File size : 1.79 GiB
Duration : 2h 4mn
Overall bit rate : 2 064 Kbps
Movie name : 1995 T I Aida Pacific Grand Prix round 15 ru
Encoded date : UTC 2013-03-01 14:27:07
Writing application : mkvmerge v6.0.0 ('Coming Up For Air') built on Jan 20 2013 09:52:00
Writing library : libebml v1.3.0 + libmatroska v1.4.0
Video
ID : 1
Format : AVC
Format/Info : Advanced Video Codec
Format profile : [email protected]
Format settings, CABAC : Yes
Format settings, ReFrames : 3 frames
Codec ID : V_MPEG4/ISO/AVC
Duration : 2h 4mn
Nominal bit rate : 1 951 Kbps
Width : 720 pixels
Height : 576 pixels
Display aspect ratio : 5:4
Original display aspect ratio : 4:3
Frame rate mode : Constant
Frame rate : 25.000 fps
Standard : PAL
Color space : YUV
Chroma subsampling : 4:2:0
Bit depth : 8 bits
Scan type : Progressive
Bits/(Pixel*Frame) : 0.188
Writing library : x264 core 129 r2245 bc13772
Encoding settings : cabac=1 / ref=2 / deblock=1:0:0 / analyse=0x3:0x113 / me=hex / subme=7 / psy=0 / mixed_ref=1 / me_range=16 / chroma_me=1 / trellis=1 / 8x8dct=1 / cqm=0 / deadzone=21,11 / fast_pskip=1 / chroma_qp_offset=0 / threads=6 / lookahead_threads=1 / sliced_threads=0 / nr=0 / decimate=1 / interlaced=0 / bluray_compat=0 / constrained_intra=1 / bframes=4 / b_pyramid=1 / b_adapt=1 / b_bias=0 / direct=1 / weightb=1 / open_gop=0 / weightp=2 / keyint=250 / keyint_min=50 / scenecut=40 / intra_refresh=0 / rc_lookahead=40 / rc=2pass / mbtree=1 / bitrate=1951 / ratetol=1.0 / qcomp=0.60 / qpmin=0 / qpmax=69 / qpstep=4 / cplxblur=20.0 / qblur=0.5 / vbv_maxrate=1951 / vbv_bufsize=1500 / nal_hrd=none / ip_ratio=1.40 / aq=1:1.00
Language : English
Default : Yes
Forced : No
Audio
ID : 2
Format : AAC
Format/Info : Advanced Audio Codec
Format profile : LC
Codec ID : A_AAC
Duration : 2h 4mn
Channel(s) : 2 channels
Channel positions : Front: L R
Sampling rate : 48.0 KHz
Compression mode : Lossy
Language : Russian
Default : Yes
Forced : No
-

Скриншоты






-

Этап 16. Гран-При Японии, Судзука (29.10.1995 г., "RTL5", "Eurosport")

-Продолжительность: 02:02:46-Канал: RTL5, Eurosport-Качество: VHSRip
Формат: Matroska
Видео кодек: Advanced Video Codec
Аудио кодек: Audio Coding 3
Видео: AVC, [email protected], 3500 Kbps, 694x554 pixels, 50.000 fps, Bits/(Pixel*Frame): 0.182
Аудио: AC-3, 256 Kbps, 2 channels, Front: L R, 48.0 KHz-

Media Info


General
Unique ID : 242334812811859043515094643070055492146 (0xB64FFCBCD23CDCCF9253A28241282A32)
Format : Matroska
Format version : Version 4 / Version 2
File size : 3.22 GiB
Duration : 2h 2mn
Overall bit rate : 3 760 Kbps
Encoded date : UTC 2013-03-01 06:22:13
Writing application : mkvmerge v6.0.0 ('Coming Up For Air') built on Jan 20 2013 09:52:00
Writing library : libebml v1.3.0 + libmatroska v1.4.0
Video
ID : 1
Format : AVC
Format/Info : Advanced Video Codec
Format profile : [email protected]
Format settings, CABAC : Yes
Format settings, ReFrames : 5 frames
Codec ID : V_MPEG4/ISO/AVC
Duration : 2h 2mn
Bit rate : 3 500 Kbps
Width : 694 pixels
Height : 554 pixels
Display aspect ratio : 4:3
Original display aspect ratio : 4:3
Frame rate mode : Constant
Frame rate : 50.000 fps
Color space : YUV
Chroma subsampling : 4:2:0
Bit depth : 8 bits
Scan type : Progressive
Bits/(Pixel*Frame) : 0.182
Stream size : 2.94 GiB (91%)
Title : Video from RTL5
Writing library : x264 core 114 r1924 08d04a4
Encoding settings : cabac=1 / ref=5 / deblock=1:-2:-1 / analyse=0x3:0x113 / me=hex / subme=7 / psy=1 / psy_rd=1.00:0.00 / mixed_ref=1 / me_range=16 / chroma_me=1 / trellis=2 / 8x8dct=1 / cqm=0 / deadzone=21,11 / fast_pskip=1 / chroma_qp_offset=-2 / threads=6 / sliced_threads=0 / nr=0 / decimate=1 / interlaced=0 / constrained_intra=0 / bframes=4 / b_pyramid=2 / b_adapt=2 / b_bias=0 / direct=3 / weightb=1 / open_gop=0 / weightp=2 / keyint=250 / keyint_min=25 / scenecut=40 / intra_refresh=0 / rc_lookahead=60 / rc=2pass / mbtree=1 / bitrate=3500 / ratetol=2.0 / qcomp=0.60 / qpmin=10 / qpmax=51 / qpstep=4 / cplxblur=20.0 / qblur=0.5 / ip_ratio=1.40 / aq=1:1.00
Default : Yes
Forced : No
Audio
ID : 2
Format : AC-3
Format/Info : Audio Coding 3
Mode extension : CM (complete main)
Format settings, Endianness : Big
Codec ID : A_AC3
Duration : 2h 2mn
Bit rate mode : Constant
Bit rate : 256 Kbps
Channel(s) : 2 channels
Channel positions : Front: L R
Sampling rate : 48.0 KHz
Bit depth : 16 bits
Compression mode : Lossy
Delay relative to video : 24ms
Stream size : 225 MiB (7%)
Language : Russian
Default : Yes
Forced : No
-

Скриншоты






-

Этап 17. Гран-При Австралии, Аделаида (12.11.1995 г., "BBC", "PTP")

-Продолжительность: 02:03:25-Канал: BBC, PTP-Качество: VHSRip
Формат:
Видео кодек: Matroska
Аудио кодек: Advanced Audio Codec
Видео: AVC, [email protected], 1967 Kbps, 720x576 pixels, 25.000 fps, Bits/(Pixel*Frame): 0.190
Аудио: AAC, 2 channels, Front: L R, 48.0 KHz-

Media Info


General
Unique ID : 175490433260966459417298143750514950460 (0x84063A60A3527537AC7351668E36413C)
Complete name : F:\Formula 1 media\1995 full ru\1995 EDS Australian Grand Prix round 17 ru.mkv
Format : Matroska
Format version : Version 4 / Version 2
File size : 1.80 GiB
Duration : 2h 3mn
Overall bit rate : 2 085 Kbps
Movie name : 1995 EDS Australian Grand Prix round 17 ru
Encoded date : UTC 2013-03-01 14:29:19
Writing application : mkvmerge v6.0.0 ('Coming Up For Air') built on Jan 20 2013 09:52:00
Writing library : libebml v1.3.0 + libmatroska v1.4.0
Video
ID : 1
Format : AVC
Format/Info : Advanced Video Codec
Format profile : [email protected]
Format settings, CABAC : Yes
Format settings, ReFrames : 3 frames
Codec ID : V_MPEG4/ISO/AVC
Duration : 2h 3mn
Nominal bit rate : 1 967 Kbps
Width : 720 pixels
Height : 576 pixels
Display aspect ratio : 5:4
Original display aspect ratio : 4:3
Frame rate mode : Constant
Frame rate : 25.000 fps
Standard : PAL
Color space : YUV
Chroma subsampling : 4:2:0
Bit depth : 8 bits
Scan type : Progressive
Bits/(Pixel*Frame) : 0.190
Writing library : x264 core 129 r2245 bc13772
Encoding settings : cabac=1 / ref=2 / deblock=1:0:0 / analyse=0x3:0x113 / me=hex / subme=7 / psy=0 / mixed_ref=1 / me_range=16 / chroma_me=1 / trellis=1 / 8x8dct=1 / cqm=0 / deadzone=21,11 / fast_pskip=1 / chroma_qp_offset=0 / threads=6 / lookahead_threads=1 / sliced_threads=0 / nr=0 / decimate=1 / interlaced=0 / bluray_compat=0 / constrained_intra=1 / bframes=4 / b_pyramid=1 / b_adapt=1 / b_bias=0 / direct=1 / weightb=1 / open_gop=0 / weightp=2 / keyint=250 / keyint_min=50 / scenecut=40 / intra_refresh=0 / rc_lookahead=40 / rc=2pass / mbtree=1 / bitrate=1967 / ratetol=1.0 / qcomp=0.60 / qpmin=0 / qpmax=69 / qpstep=4 / cplxblur=20.0 / qblur=0.5 / vbv_maxrate=1967 / vbv_bufsize=1500 / nal_hrd=none / ip_ratio=1.40 / aq=1:1.00
Language : English
Default : Yes
Forced : No
Audio
ID : 2
Format : AAC
Format/Info : Advanced Audio Codec
Format profile : LC
Codec ID : A_AAC
Duration : 2h 3mn
Channel(s) : 2 channels
Channel positions : Front: L R
Sampling rate : 48.0 KHz
Compression mode : Lossy
Language : Russian
Default : Yes
Forced : No
-

Скриншоты





-


Последний раз редактировалось: M.J. (2013-08-21 00:11), всего редактировалось 1 раз

Создавать темы 05-Авг-2013 18:54

[Профиль]  [ЛС] 
Показать сообщения:    
Ответить на тему

Текущее время: 18-Ноя 22:50

Часовой пояс: UTC + 5



Вы не можете начинать темы
Вы не можете отвечать на сообщения
Вы не можете редактировать свои сообщения
Вы не можете удалять свои сообщения
Вы не можете голосовать в опросах
Вы не можете прикреплять файлы к сообщениям
Вы не можете скачивать файлы