Аватар / Avatar (Джеймс Камерон) [2009 г., Фантастика, боевик, триллер, приключения, BDRip 720p] 60 FPS!

Страницы :  1, 2  След.

Ответить на тему
 

venomer07 ®

Стаж: 4 года 9 месяцев

Сообщений: 27

Аватар / Avatar
60 кадр/с
Название: Аватар
Оригинальное название: Avatar
Год выхода: 2009
Жанр: Фантастика, боевик, триллер, приключения
Страна: США
Продолжительность: 02:41:41
Перевод: Профессиональный (полное дублирование)
Режиссер: Джеймс Камерон
В ролях: Сэм Уортингтон, Зои Салдана, Сигурни Уивер, Стивен Лэнг, Мишель Родригес.
О фильме: Джейк Салли — бывший морской пехотинец, прикованный к инвалидному креслу. Несмотря на немощное тело, Джейк в душе по-прежнему остается воином. Он получает задание совершить путешествие в несколько световых лет к базе землян на планете Пандора, где корпорации добывают редкий минерал, имеющий огромное значение для выхода Земли из энергетического кризиса.
Исходник: Blu-Ray CCE 1080p 44Gb.
Файл:
Кодек: H.264/AVC
Качество: BDRip 720p
Видео: 1280x720, 15000kbps, 60 fps.
Звук: Russian DTS 5.1, 48kHz, 24bit, 755kbps.
Субтитры: Речь Нави - Русские, стилизованные.

Медиа Инфо

General
Unique ID : 184316520585661136186418817441426626602 (0x8AAA12146C19E9F3B92F244D36A0D82A)
Complete name : E:\__CINEMA__\Avatar. FULL HD-3D..1280x720p.mkv
Format : Matroska
Format version : Version 2
File size : 17.6 GiB
Duration : 2h 41mn
Overall bit rate : 15.6 Mbps
Encoded date : UTC 2010-07-28 16:14:00
Writing application : mkvmerge v4.1.1 ('Bouncin' Back') сборка от Jul 3 2010 22:54:08
Writing library : libebml v1.0.0 + libmatroska v1.0.0
Video #1
ID : 1
Format : AVC
Format/Info : Advanced Video Codec
Format profile : [email protected]
Format settings, CABAC : Yes
Format settings, ReFrames : 16 frames
Codec ID : V_MPEG4/ISO/AVC
Duration : 2h 41mn
Bit rate : 15.0 Mbps
Width : 1 280 pixels
Height : 720 pixels
Display aspect ratio : 16:9
Frame rate mode : Constant
Frame rate : 60.000 fps
Original frame rate : 59.940 fps
Color space : YUV
Chroma subsampling : 4:2:0
Bit depth : 8 bits
Scan type : Progressive
Bits/(Pixel*Frame) : 0.271
Stream size : 16.4 GiB (93%)
Title : Avatar BD-Rip 720p 15000kbps
Writing library : x264 core 100 r1659 57b2e56
Encoding settings : cabac=1 / ref=16 / deblock=1:-1:-1 / analyse=0x3:0x133 / me=tesa / subme=10 / psy=1 / psy_rd=1.00:0.00 / mixed_ref=1 / me_range=24 / chroma_me=1 / trellis=2 / 8x8dct=1 / cqm=0 / deadzone=21,11 / fast_pskip=1 / chroma_qp_offset=-2 / threads=3 / sliced_threads=0 / nr=0 / decimate=1 / interlaced=0 / constrained_intra=0 / bframes=8 / b_pyramid=0 / b_adapt=2 / b_bias=0 / direct=3 / weightb=1 / open_gop=0 / weightp=2 / keyint=250 / keyint_min=25 / scenecut=40 / intra_refresh=0 / rc_lookahead=60 / rc=abr / mbtree=1 / bitrate=15000 / ratetol=1.0 / qcomp=0.60 / qpmin=10 / qpmax=51 / qpstep=4 / ip_ratio=1.40 / aq=1:1.00
Default : Yes
Forced : No
Audio #2
ID : 2
Format : DTS
Format/Info : Digital Theater Systems
Mode : 16
Format settings, Endianness : Big
Muxing mode : Header stripping
Codec ID : A_DTS
Duration : 2h 41mn
Bit rate mode : Constant
Bit rate : 768 Kbps
Channel(s) : 6 channels
Channel positions : Front: L C R, Side: L R, LFE
Sampling rate : 48.0 KHz
Bit depth : 24 bits
Compression mode : Lossy
Stream size : 888 MiB (5%)
Title : Russian DTS 5.1ch
Language : Russian
Default : Yes
Forced : No
Text #3
ID : 3
Format : VobSub
Muxing mode : zlib
Codec ID : S_VOBSUB
Codec ID/Info : The same subtitle format used on DVDs
Title : Navi - Russian
Language : Russian
Default : Yes
Forced : No

Скриншот




Последний раз редактировалось: venomer07 (2013-08-07 19:21), всего редактировалось 6 раз(а)

Создавать темы 07-Авг-2013 16:03

[Профиль]  [ЛС] 

Titanum

Стаж: 5 лет 1 месяц

Сообщений: 39

Симпатии: 1

Kinodan Tushum: $760 505 847
bw янгли уу
~ 4 млрд ортик йигилган ўзи кино cb
булиби билан
3.16. Использовать в общении на форуме язык, отличный от русского, и шрифт, отличный от кириллического (за исключением раздела Ўзбек тилида сўзлашувчилар учун). Модераторы и Администраторы имеют право редактировать или удалять сообщения, написанные на языке, отличном от русского, и шрифтом, отличным от кириллического, без предупреждения.


Последний раз редактировалось: Titanum (2013-08-07 16:19), всего редактировалось 2 раз(а)

Создавать темы 07-Авг-2013 16:11

[Профиль]  [ЛС] 

madik

Стаж: 5 лет 3 месяца

Сообщений: 89

Симпатии: 5

парень жжет

Создавать темы 07-Авг-2013 16:17

[Профиль]  [ЛС] 

venomer07 ®

Стаж: 4 года 9 месяцев

Сообщений: 27

Исправлено!!!

Создавать темы 07-Авг-2013 16:19

[Профиль]  [ЛС] 

yura2329

Стаж: 4 года 11 месяцев

Сообщений: 19

качества обычное 720р .. фильмы такого качества от 4,5 до 6 гигов весят в основном. а тут целых 17 гигов... согласен частота 60 кадров... но разницу между 24 и 60 кадрами вы сильно не заметите.

Создавать темы 07-Авг-2013 16:54

[Профиль]  [ЛС] 

venomer07 ®

Стаж: 4 года 9 месяцев

Сообщений: 27

вы ещё не смотрели такого фильм ? 60 кадров с 1 секунду это как живой понимаете?

Создавать темы 07-Авг-2013 17:18

[Профиль]  [ЛС] 

Топик был перенесен из форума HD-AVC в форум Зарубежное кино

ziyod

Создавать темы 07-Авг-2013 19:16

 

venomer07 ®

Стаж: 4 года 9 месяцев

Сообщений: 27

Спасибо Ziyod!

Создавать темы 08-Авг-2013 07:41

[Профиль]  [ЛС] 

den11111

Стаж: 4 года 9 месяцев

Сообщений: 58

Симпатии: 2

это чо прикол на такой фильм такая раздача?

Создавать темы 09-Авг-2013 09:00

[Профиль]  [ЛС] 

sixaxis

Стаж: 6 лет 8 месяцев

Сообщений: 75

действительно, раздавал бы нормально, "вы ещё не смотрели такого фильм ? 60 кадров с 1 секунду это как живой понимаете?" быстро раздавай потом мы сами посмотрим
п.с. в день раздаёш ели-ели по 1%

Создавать темы 10-Авг-2013 00:32

[Профиль]  [ЛС] 

abuz85

Стаж: 8 лет 11 месяцев

Сообщений: 109

Симпатии: 80

sixaxis, скачайте это и смотрите обычные BDRip 720p и 1080p.

Создавать темы 10-Авг-2013 01:34

[Профиль]  [ЛС] 

sixaxis

Стаж: 6 лет 8 месяцев

Сообщений: 75

sixaxis, скачайте это и смотрите обычные BDRip 720p и 1080p.
прога-то есть, просто интересно чем эт фильм 60 кад. в секунду отличается от обычной

Создавать темы 10-Авг-2013 02:11

[Профиль]  [ЛС] 

den11111

Стаж: 4 года 9 месяцев

Сообщений: 58

Симпатии: 2

а так по началу видно то что качество классное

Создавать темы 10-Авг-2013 21:24

[Профиль]  [ЛС] 

den11111

Стаж: 4 года 9 месяцев

Сообщений: 58

Симпатии: 2

так будет норм раздача или нет?

Создавать темы 11-Авг-2013 17:28

[Профиль]  [ЛС] 

DMiTRY

Стаж: 6 лет 7 месяцев

Сообщений: 649

Симпатии: 28

майбе блюрик вам залить ?

Создавать темы 11-Авг-2013 17:40

[Профиль]  [ЛС] 
Показать сообщения:    
Ответить на тему

Текущее время: 16-Дек 20:02

Часовой пояс: UTC + 5



Вы не можете начинать темы
Вы не можете отвечать на сообщения
Вы не можете редактировать свои сообщения
Вы не можете удалять свои сообщения
Вы не можете голосовать в опросах
Вы не можете прикреплять файлы к сообщениям
Вы не можете скачивать файлы