Если невеста ведьма (Олег Фесенко) [2002, мистико-лирическая комедия, DVDRip]

Ответить на тему
 

Angry ®

Стаж: 6 лет 7 месяцев

Сообщений: 55

Если невеста ведьма
Жанр: мистико-лирическая комедия
Год выпуска: 2002
Продолжительность: 02:39:31
Режиссёр: Олег Фесенко
В ролях: Сергей Безруков, Ольга Погодина, Армен Джигарханян, Леонид Куравлёв, Спартак Мишулин, Дилан, Павел Сметанкин, Александр Арсентьев, Айлика Кремер, Алексей Дайнеко, Константин Пермяков, Владимир Медведев, Алексей Воробьёв, Соня Мудрова, Марина Фесенко, Любовь Полякова, Кирилл Балмин, Светлана Полякова, Елена Бабаева, Юрий Королёв, Анна Орехова, Алексей Силкин, Михаил Савельев, Сергей Дорофеев, Леонид Безуглый
Описание: Во время летних каникул профессор Зак отправляет своего аспиранта, молодого ученого Максима Росса, к себе на дачу - в абсолютно глухое место, где в радиусе 50 километров нет ни одной живой души. Профессор хочет, чтобы Макс, вдали от городской суеты и хорошеньких студенток Университета естественных наук, закончил работу над диссертацией, посвященной судебным процессам над салемскими ведьмами, - "Психодинамика колдовства на опыте процессов над ведьмами, 1692 год". По пути на профессорскую дачу Макс знакомится с местной девушкой Алисой Малкович, сбежавшей из дома, от папеньки, который ее боится, а потому спит и видит, как бы сплавить замуж...
Доп. информация: По мотивам рассказа американского фантаста Джеймса Эдвина Ганна "Где бы ты ни был" (1953).
Сценарий: Олег Фесенко
Операторы: Владимир Артёмов, Игорь Кожевников, Евгений Привин
Художники: Анатолий Улымов, Илья Евдокимов
Музыка и тексты песен: группа "Ground Beat" из альбома "Черная вода"
Ограничения на просмотр: детям до 12 лет просмотр фильма разрешен в сопровождении родителей
Качество видео: DVDRip
Формат видео: AVI
Видео: 704x528 (1.33:1), 25 fps, XviD 1.2.1, 2099 kbps avg, 0.23 bit/pixel
Аудио: 48 kHz, AC3 Dolby Digital, 2/0 (L,R) ch, 192.00 kbps avg

Отчет MediaInfo

Полное имя : Esli nevesta vedma.avi
Формат : AVI
Формат/Информация : Audio Video Interleave
Профиль формата : OpenDML
Размер файла : 2,56 Гбайт
Продолжительность : 2 ч. 39 м.
Общий поток : 2298 Кбит/сек
Программа кодирования : VirtualDubMod 1.5.10.2 (build 2540/release)
Библиотека кодирования : VirtualDubMod build 2540/release
Видео
Идентификатор : 0
Формат : MPEG-4 Visual
Профиль формата : Advanced [email protected]
Параметр BVOP формата : 2
Параметр QPel формата : Нет
Параметр GMC формата : Без точки перехода
Параметр матрицы формата : Default (MPEG)
Режим смешивания : Сжатый битовый поток
Идентификатор кодека : DIVX
Идентификатор кодека/Информация : Project Mayo
Идентификатор кодека/Подсказка : DivX 4
Продолжительность : 2 ч. 39 м.
Битрейт : 2095 Кбит/сек
Ширина : 704 пикселя
Высота : 528 пикселей
Соотношение сторон : 4:3
Частота кадров : 25,000 кадров/сек
Цветовое пространство : YUV
Субдискретизация насыщенности : 4:2:0
Битовая глубина : 8 бит
Тип развёртки : Прогрессивная
Метод сжатия : С потерями
Бит/(Пиксели*Кадры) : 0.225
Размер потока : 2,33 Гбайт (91%)
Библиотека кодирования : XviD 1.2.1 (UTC 2008-12-04)
Аудио
Идентификатор : 1
Формат : AC-3
Формат/Информация : Audio Coding 3
Расширение режима : CM (complete main)
Идентификатор кодека : 2000
Продолжительность : 2 ч. 39 м.
Вид битрейта : Постоянный
Битрейт : 192 Кбит/сек
Каналы : 2 канала
Расположение каналов : Front: L R
Частота : 48,0 КГц
Битовая глубина : 16 бит
Метод сжатия : С потерями
Размер потока : 219 Мбайт (8%)
Выравнивание : Разделение по промежуткам
Продолжительность промежутка : 40 мс. (1,00 видеокадр)
Время предзагрузки промежутка : 500 мс.

Скриншоты




Создавать темы 07-Авг-2013 19:10

[Профиль]  [ЛС] 

insomniator

Стаж: 5 лет 10 месяцев

Сообщений: 48

на скринах - какачесвенная картинка

Создавать темы 07-Авг-2013 21:21

[Профиль]  [ЛС] 

takha

Стаж: 5 лет 10 месяцев

Сообщений: 8

почему так ? сидов 11, а загрузки нет. за трое суток 33 %

Создавать темы 12-Авг-2013 16:17

[Профиль]  [ЛС] 
Показать сообщения:    
Ответить на тему

Текущее время: 18-Ноя 20:57

Часовой пояс: UTC + 5



Вы не можете начинать темы
Вы не можете отвечать на сообщения
Вы не можете редактировать свои сообщения
Вы не можете удалять свои сообщения
Вы не можете голосовать в опросах
Вы не можете прикреплять файлы к сообщениям
Вы не можете скачивать файлы