Месть ниндзя / Revenge of the Ninja (Сэм Ферстенберг / Sam Firstenberg) [1983, США, Боевик, DVDRip-AVC]

Ответить на тему
 

Angry ®

Стаж: 6 лет 4 месяца

Сообщений: 55

Месть ниндзя / Revenge of the Ninja
-Страна: U.S.A / США
Жанр: Боевик
Год выпуска: 1983
Продолжительность: 01:30:06-Перевод:
Русский Многоголосны Закадровый (ТВ3)
Авторский Одноголосный (Алексей Мехалев)
Оригинал (ENG)
Русские cубтитры: нет-Режиссер: Сэм Ферстенберг /Sam Firstenberg-В ролях: Шо Косуги /Sho Kosugi/, Кит Витали /Keith Vitali/, Верджил
Фрай /Virgil Frye/, Артур Робертс /Arthur Roberts/, Марио Галло
/Mario Gallo/, Грэйс Ошита /Grace Oshita/-Описание: Мастер искуства ниндзютцу Чо по прозвищу Черный ниндзя
вместе с сыном переезжает в США и начинает новую жизнь на чужбине,
после того как в Японии группа ниндзя убивает почти всех членов его
семьи. Чо открывает магазин игрушек, не подозревая, что его нечистый
на руку партнер провозит контрабандой героин, набивая им кукол.
Осознание того, что партнер и друг предал его, становится последней
каплей в чаше терпения Черного ниндзя.-Качество видео: DVDRip-AVC
Формат видео: MKV
Видео: AVC, [email protected] pixels, 23.976 fps, 1 945 Kbps
Аудио 1: (Rus) AC-3, 192 Kbps, 44,1 KHz, 2 channels
Аудио 2: (Rus) AC-3, 256 Kbps, 48.0 KHz, 2 channels
Аудио 3: (Eng) AC-3, 192 Kbps, 48.0 KHz, 2 channels-

Скриншоты



Доп.информация

Format : Matroska
File size : 1.41 GiB
Duration : 1h 30mn
Overall bit rate : 2 243 Kbps
Movie name : Revenge Of The Ninja Rip By Elvenpat For Rutracker
Encoded date : UTC 2010-12-14 16:57:21
Writing application : mkvmerge v2.9.7 ('Tenderness') built on Jul 1 2009 18:43:35
Writing library : libebml v0.7.7 + libmatroska v0.8.1-Video
ID : 1
Format : AVC
Format/Info : Advanced Video Codec
Format profile : [email protected]
Format settings, CABAC : Yes
Format settings, ReFrames : 10 frames
Codec ID : V_MPEG4/ISO/AVC
Duration : 1h 30mn
Bit rate : 1 601 Kbps
Width : 720 pixels
Height : 480 pixels
Display aspect ratio : 4:3
Frame rate : 23.976 fps
Standard : NTSC
Color space : YUV
Chroma subsampling : 4:2:0
Bit depth : 8 bits
Scan type : Progressive
Bits/(Pixel*Frame) : 0.193
Stream size : 1 006 MiB (69%)
Title : Revenge Of The Ninja Rip By Elvenpat For Rutracker
Writing library : x264 core 92 r1510 33d382a
Encoding settings : cabac=1 / ref=10 / deblock=1:-2:-1 / analyse=0x3:0x133 / me=tesa / subme=10 / psy=1 / psy_rd=1.00:0.20 / mixed_ref=1 / me_range=32 / chroma_me=1 / trellis=2 / 8x8dct=1 / cqm=0 / deadzone=21,11 / fast_pskip=1 / chroma_qp_offset=-3 / threads=3 / sliced_threads=0 / nr=0 / decimate=1 / interlaced=0 / constrained_intra=0 / bframes=10 / b_pyramid=2 / b_adapt=2 / b_bias=0 / direct=3 / wpredb=1 / wpredp=2 / keyint=250 / keyint_min=25 / scenecut=40 / intra_refresh=0 / rc_lookahead=60 / rc=2pass / mbtree=1 / bitrate=1601 / ratetol=1.0 / qcomp=0.60 / qpmin=10 / qpmax=51 / qpstep=4 / cplxblur=20.0 / qblur=0.5 / ip_ratio=1.40 / aq=1:1.00
Language : English-Audio #1
ID : 2
Format : AC-3
Format/Info : Audio Coding 3
Mode extension : CM (complete main)
Codec ID : A_AC3
Duration : 1h 30mn
Bit rate mode : Constant
Bit rate : 192 Kbps
Channel(s) : 2 channels
Channel positions : Front: L R
Sampling rate : 44.1 KHz
Bit depth : 16 bits
Compression mode : Lossy
Stream size : 124 MiB (9%)
Title : Многоголосный (Тв3)
Language : Russian-Audio #2
ID : 3
Format : AC-3
Format/Info : Audio Coding 3
Mode extension : CM (complete main)
Codec ID : A_AC3
Duration : 1h 30mn
Bit rate mode : Constant
Bit rate : 256 Kbps
Channel(s) : 2 channels
Channel positions : Front: L R
Sampling rate : 48.0 KHz
Bit depth : 16 bits
Compression mode : Lossy
Stream size : 165 MiB (11%)
Title : Авторский (Алексей Мехалев)
Language : Russian-Audio #3
ID : 4
Format : AC-3
Format/Info : Audio Coding 3
Mode extension : CM (complete main)
Codec ID : A_AC3
Duration : 1h 30mn
Bit rate mode : Constant
Bit rate : 192 Kbps
Channel(s) : 2 channels
Channel positions : Front: L R
Sampling rate : 48.0 KHz
Bit depth : 16 bits
Compression mode : Lossy
Stream size : 124 MiB (9%)
Title : Оригинал (ENG)
Language : English

Создавать темы 08-Авг-2013 10:38

[Профиль]  [ЛС] 

ikrom

Стаж: 5 лет 7 месяцев

Сообщений: 25

Симпатии: 1

давно искал этот фильм спасибо .

Создавать темы 08-Авг-2013 14:11

[Профиль]  [ЛС] 

KGB_USSR

Стаж: 7 лет 2 месяца

Сообщений: 75

Дайте скорость

Создавать темы 19-Дек-2013 21:51

[Профиль]  [ЛС] 

Omni

Стаж: 7 лет 1 месяц

Сообщений: 20

4 сида 3 личера да еще раздача не нуждается в помощи. А 71% скачиваемого как уже стоит 3 дня. Кто-нибудь может объяснить такой феномен

Создавать темы 18-Янв-2014 12:22

[Профиль]  [ЛС] 
Показать сообщения:    
Ответить на тему

Текущее время: 18-Авг 04:32

Часовой пояс: UTC + 5



Вы не можете начинать темы
Вы не можете отвечать на сообщения
Вы не можете редактировать свои сообщения
Вы не можете удалять свои сообщения
Вы не можете голосовать в опросах
Вы не можете прикреплять файлы к сообщениям
Вы не можете скачивать файлы